Today is a free download without charge Download

Звёздные войны: Скайуокер. Восход / Star Wars: Episode IX - The Rise of Skywalker (Джей Джей Абрамс) [2019, Фантастика, фэнтези, боевик, приключения, CAMRip]

Reply to topic
 
Author
Message

mayor ®

Gender:

Longevity: 1 year 9 months

Posts: 206

Location: РФ

Торрент-статистика

Post 21-Dec-2019 19:48

[Quote]

-Звёздные войны: Скайуокер. Восход / Star Wars: Episode IX - The Rise of Skywalker- Производство: США / Lucasfilm, Bad Robot, Digital Makeup Group
Жанр: Фантастика, фэнтези, боевик, приключения
Режиссер: Джей Джей Абрамс
Актеры: Дэйзи Ридли, Адам Драйвер, Кэрри Фишер, Марк Хэмилл, Джон Бойега, Оскар Айзек, Энтони Дэниелс, Наоми Аки, Донал Глисон, Ричард Э. Грант
Описание:
Фильм завершает невероятную историю семьи Скайуокеров, длящуюся уже более сорока лет, и обещает дать ответы на все загадки из предыдущих серий. Зрителя ожидают старые и новые герои, уникальные миры, увлекательные путешествия на край Галактики и грандиозный финал фантастической саги.

Возраст: 16+ (зрителям, достигшим 16 лет)
Рейтинг MPAA: PG-13 (детям до 13 лет просмотр нежелателен)
Дата мировой премьеры: 16 декабря 2019
Дата премьеры в России: 19 декабря 2019

Продолжительность: 02:11:21
Качество видео: CAMRip [http://sendfile.su/1536270]
Перевод: Дублированный
Субтитры: Отсутствуют
Реклама: Присутствует баннер.
Видео: AVC/H.264, 1280x536, ~3981 Kbps
Аудио: AC-3, 2 ch, 384 Kbps

MI

Общее
Полное имя : D:\Звёздные войны\Star.Wars.The.Rise.of.Skywalker.2019.CAMRip.720p-LQ.mkv
Формат : Matroska
Версия формата : Version 2
Размер файла : 4,09 Гбайт
Продолжительность : 2 ч. 11 м.
Режим общего битрейта : Переменный
Общий поток : 4454 Кбит/сек
Программа кодирования : libmatroska 1.4.1
Библиотека кодирования : SolveigMM Matroska Muxer Version 1.0.1502.31
Видео
Идентификатор : 1
Формат : AVC
Формат/Информация : Advanced Video Codec
Профиль формата : [url=mailto:[email protected]][email protected][/url]
Настройки формата : CABAC / 4 Ref Frames
Параметр CABAC формата : Да
Параметр RefFrames формата : 4 кадра
Идентификатор кодека : V_MPEG4/ISO/AVC
Продолжительность : 2 ч. 11 м.
Вид битрейта : Переменный
Битрейт : 3981 Кбит/сек
Максимальный битрейт : 4400 Кбит/сек
Ширина : 1280 пикселей
Высота : 536 пикселей
Соотношение сторон : 2,40:1
Режим частоты кадров : Постоянный
Частота кадров : 23,976 (24000/1001) кадра/сек
Стандарт вещания : Component
Цветовое пространство : YUV
Субдискретизация насыщенности : 4:2:0
Битовая глубина : 8 бит
Тип развёртки : Прогрессивная
Бит/(Пиксели*Кадры) : 0.242
Размер потока : 3,65 Гбайт (89%)
Default : Нет
Forced : Нет
Цветовой диапазон : Limited
Основные цвета : BT.709
Характеристики трансфера : BT.709
Коэффициенты матрицы : BT.709
Аудио
Идентификатор : 2
Формат : AC-3
Формат/Информация : Audio Coding 3
Коммерческое название : Dolby Digital
Идентификатор кодека : A_AC3
Продолжительность : 2 ч. 11 м.
Вид битрейта : Постоянный
Битрейт : 384 Кбит/сек
Каналы : 2 канала
ChannelLayout : L R
Частота : 48,0 КГц
Частота кадров : 31,250 кадров/сек (1536 SPF)
Битовая глубина : 16 бит
Метод сжатия : С потерями
Размер потока : 361 Мбайт (9%)
Язык : Russian
ServiceKind/String : Complete Main
Default : Нет
Forced : Нет
Скриншоты:
       

_________________
Other forum [Profile] [PM]
Similar theme
Forum Topic Author Torrent Replies Last Post
./templates/default/images/folder_dl.gif Зарубежное кино Изгой-один: Звёздные войны. Истории / Rogue One: A Star Wars Story (Гарет Эдвардс) [2016 г., фантастика, боевик, приключения, BDRip 1080p] DUB | Чистый звук Theseus
1 | 0

0 | 7693

7

2017-03-22 11:05
Theseus Latest
Display posts from previous:    
Reply to topic

The time now is: Today 13:49

All times are GMT + 3 Hours



You cannot post new topics in this forum
You cannot reply to topics in this forum
You cannot edit your posts in this forum
You cannot delete your posts in this forum
You cannot vote in polls in this forum
You cannot attach files in this forum
You cannot download files in this forum