Today is a free download without charge Download

Kimi to, Nami ni Noretara | Ride Your Wave | Оседлав волну с тобой [2019, Movie] WEB-DL 1080p rus

Reply to topic
 
Author
Message

Clavik ®

Gender:

Longevity: 6 years 10 months

Posts: 2496

Location: Украина

Торрент-статистика

Post 13-Dec-2019 00:35

[Quote]

きみと, 波にのれたら | Kimi to, Nami ni Noretara | Ride Your Wave | Оседлав волну с тобой - Тип: полнометражный фильм
Жанр: комедия, романтика, драма
Продолжительность: 01:35:17
Дата выпуска: 21.06.2019
Производство: Япония / Science SARU
Режиссер: Юаса Масааки
Ссылки: World-Art || aniDB || MAL
Описание:Поступив в университет, Хинако переезжает в прибрежный городок. Она очень любит сёрфинг и на волнах чувствует себя уверенно, однако неопределённость будущего всё ещё беспокоит её. Когда разбушевавшийся пожар сеет хаос в городке, Хинако знакомится с молодым пожарным Минато. Пока они занимаются сёрфингом и проводят много времени вместе, девушка начинает чувствовать, что её тянет к кому-то вроде Минато, кто посвятил свою жизнь помощи другим. В свою очередь Хинако тоже занимает особое место в сердце юноши.Язык озвучки: русский, [AniStar] (двухголосый): Shoker & Kanade EU - sample
Субтитры: Отсутствуют
Качество видео: WEB-DL (Amazon)
Видео: AVC/H.264, 1920x1080, 23.976 fps, ~4512 kbps
Аудио 1: AC3, 2.0 ch, 48.0 kHz, 256 kbps - русский
Аудио 2: EAC3, 5.1 ch, 48.0 kHz, 640 kbps - японскийСкриншоты:
       

MediaInfo:


Код:
Общее
Уникальный идентификатор                 : 243443906136296228633641609347680929309 (0xB7259742A4BB4985103D936279DB861D)
Полное имя                               : Ride Your Wave 2019 AMZN WED-DL 1080p.mkv
Формат                                   : Matroska
Версия формата                           : Version 4
Размер файла                             : 3,60 Гбайт
Продолжительность                        : 1 ч. 35 м.
Режим общего битрейта                    : Постоянный
Общий поток                              : 5410 Кбит/сек
Дата кодирования                         : UTC 2019-12-11 08:51:43
Программа кодирования                    : mkvmerge v39.0.0 ('In The Waiting Line') 64-bit
Библиотека кодирования                   : libebml v1.3.9 + libmatroska v1.5.2
Видео
Идентификатор                            : 1
Формат                                   : AVC
Формат/Информация                        : Advanced Video Codec
Профиль формата                          : [email protected]
Настройки формата                        : CABAC / 4 Ref Frames
Параметр CABAC формата                   : Да
Параметр RefFrames формата               : 4 кадра
Идентификатор кодека                     : V_MPEG4/ISO/AVC
Продолжительность                        : 1 ч. 35 м.
Вид битрейта                             : Постоянный
Битрейт                                  : 4512 Кбит/сек
Номинальный битрейт                      : 10000 Кбит/сек
Ширина                                   : 1920 пикселей
Высота                                   : 1080 пикселей
Соотношение сторон                       : 16:9
Режим частоты кадров                     : Постоянный
Частота кадров                           : 23,976 (24000/1001) кадра/сек
Цветовое пространство                    : YUV
Субдискретизация насыщенности            : 4:2:0
Битовая глубина                          : 8 бит
Тип развёртки                            : Прогрессивная
Бит/(Пиксели*Кадры)                      : 0.091
Размер потока                            : 3,00 Гбайт (83%)
Заголовок                                : Ride Your Wave [Amazon]
Язык                                     : Japanese
Default                                  : Да
Forced                                   : Нет
Цветовой диапазон                        : Limited
Основные цвета                           : BT.709
Характеристики трансфера                 : BT.709
Коэффициенты матрицы                     : BT.709
Аудио #1
Идентификатор                            : 2
Формат                                   : AC-3
Формат/Информация                        : Audio Coding 3
Коммерческое название                    : Dolby Digital
Идентификатор кодека                     : A_AC3
Продолжительность                        : 1 ч. 35 м.
Вид битрейта                             : Постоянный
Битрейт                                  : 256 Кбит/сек
Каналы                                   : 2 канала
ChannelLayout                            : L R
Частота                                  : 48,0 КГц
Частота кадров                           : 31,250 кадров/сек (1536 SPF)
Битовая глубина                          : 16 бит
Метод сжатия                             : С потерями
Размер потока                            : 174 Мбайт (5%)
Заголовок                                : [Shoker & Kanade EU][AniStar]
Язык                                     : Russian
ServiceKind/String                       : Complete Main
Default                                  : Да
Forced                                   : Нет
Аудио #2
Идентификатор                            : 3
Формат                                   : E-AC-3
Формат/Информация                        : Enhanced AC-3
Коммерческое название                    : Dolby Digital Plus
Идентификатор кодека                     : A_EAC3
Продолжительность                        : 1 ч. 35 м.
Вид битрейта                             : Постоянный
Битрейт                                  : 640 Кбит/сек
Каналы                                   : 6 каналов
ChannelLayout                            : L R C LFE Ls Rs
Частота                                  : 48,0 КГц
Частота кадров                           : 31,250 кадров/сек (1536 SPF)
Метод сжатия                             : С потерями
Размер потока                            : 436 Мбайт (12%)
Язык                                     : Japanese
ServiceKind/String                       : Complete Main
Default                                  : Нет
Forced                                   : Нет

_________________


Other forum [Profile] [PM]
Display posts from previous:    
Reply to topic

The time now is: Today 01:08

All times are GMT + 3 Hours



You cannot post new topics in this forum
You cannot reply to topics in this forum
You cannot edit your posts in this forum
You cannot delete your posts in this forum
You cannot vote in polls in this forum
You cannot attach files in this forum
You cannot download files in this forum