Today is a free download without charge Download

Джуманджи: Новый уровень / Jumanji: The Next Level (2019) TS [MVO] [AD]

Reply to topic
 
Author
Message

Clavik ®

Gender:

Longevity: 7 years 11 months

Posts: 2454

Location: Украина

Торрент-статистика

Post 11-Dec-2019 22:58

[Quote]

Джуманджи: Новый уровень / Jumanji: The Next Level (2019) TS- Производство: США / Hartbeat Productions, Matt Tolmach Productions, Seven Bucks Productions
Жанр: Фэнтези, боевик, комедия, приключения
Режиссер: Джейк Кэздан
Актеры: Карен Гиллан, Дуэйн Джонсон, Марин Хинкль, Мэдисон Айсмен, Джек Блэк, Эшли Скотт, Аквафина, Дэнни ДеВито, Ник Джонас, Кевин Харт
Описание:
Чтобы спасти одного из приятелей, остальным приходится вернуться в игру. К их удивлению, правила Джуманджи изменились, и все идет наперекосяк. Чтобы выжить друзьям предстоит отправиться в путешествие по самым неизведанным и таинственным уголкам игры — от засушливой пустыни до заснеженных гор.

Возраст: 12+ (зрителям, достигшим 12 лет)
Рейтинг MPAA: PG-13 (детям до 13 лет просмотр нежелателен)
Дата мировой премьеры: 4 декабря 2019
Дата премьеры в России: 12 декабря 2019,

Продолжительность: 01:52:59
Качество видео: TS
Перевод: Дублированный
Субтитры: Отсутствуют
Реклама: Присутствует баннер.
[Видео: AVC/H.264, 1280x536, ~3606 Kbps
Аудио: AC-3, 2 ch, 384 Kbps

MediaInfo:

Общее
Полное имя : D:\NNM\Джуманджи\Dgumangi.2019.TS.720p-LQ.mkv
Формат : Matroska
Версия формата : Version 2
Размер файла : 3,21 Гбайт
Продолжительность : 1 ч. 52 м.
Режим общего битрейта : Переменный
Общий поток : 4071 Кбит/сек
Программа кодирования : libmatroska 1.4.1
Библиотека кодирования : SolveigMM Matroska Muxer Version 1.0.1502.31
Видео
Идентификатор : 1
Формат : AVC
Формат/Информация : Advanced Video Codec
Профиль формата : [url=mailto:[email protected]][email protected][/url]
Настройки формата : CABAC / 4 Ref Frames
Параметр CABAC формата : Да
Параметр RefFrames формата : 4 кадра
Идентификатор кодека : V_MPEG4/ISO/AVC
Продолжительность : 1 ч. 52 м.
Вид битрейта : Переменный
Битрейт : 3606 Кбит/сек
Номинальный битрейт : 4000 Кбит/сек
Максимальный битрейт : 4000 Кбит/сек
Ширина : 1280 пикселей
Высота : 536 пикселей
Соотношение сторон : 2,40:1
Режим частоты кадров : Постоянный
Частота кадров : 23,976 (24000/1001) кадра/сек
Стандарт вещания : Component
Цветовое пространство : YUV
Субдискретизация насыщенности : 4:2:0
Битовая глубина : 8 бит
Тип развёртки : Прогрессивная
Бит/(Пиксели*Кадры) : 0.219
Размер потока : 2,85 Гбайт (89%)
Default : Нет
Forced : Нет
Цветовой диапазон : Limited
Основные цвета : BT.709
Характеристики трансфера : BT.709
Коэффициенты матрицы : BT.709
Аудио
Идентификатор : 2
Формат : AC-3
Формат/Информация : Audio Coding 3
Коммерческое название : Dolby Digital
Идентификатор кодека : A_AC3
Продолжительность : 1 ч. 52 м.
Вид битрейта : Постоянный
Битрейт : 384 Кбит/сек
Каналы : 2 канала
ChannelLayout : M M
Частота : 48,0 КГц
Частота кадров : 31,250 кадров/сек (1536 SPF)
Битовая глубина : 16 бит
Метод сжатия : С потерями
Размер потока : 310 Мбайт (9%)
Язык : Russian
ServiceKind/String : Complete Main
Default : Нет
Forced : Нет
Скриншоты:        

_________________


Other forum [Profile] [PM]
Display posts from previous:    
Reply to topic

The time now is: Today 13:33

All times are GMT + 3 Hours



You cannot post new topics in this forum
You cannot reply to topics in this forum
You cannot edit your posts in this forum
You cannot delete your posts in this forum
You cannot vote in polls in this forum
You cannot attach files in this forum
You cannot download files in this forum