Today is a free download without charge Download

Аванпост (Егор Баранов) [2019, триллер, фантастика, боевик, TS]

Reply to topic
 
Author
Message

mayor ®

Gender:

Longevity: 1 year 9 months

Posts: 206

Location: РФ

Торрент-статистика

Post 08-Dec-2019 20:13

[Quote]

Аванпост--- Производство: Россия
Жанр: триллер, фантастика, боевик
Режиссер: Егор Баранов
Актеры: Лукерья Ильяшенко, Пётр Фёдоров, Светлана Иванова, Алексей Чадов, Ксения Кутепова, Константин Лавроненко, Филипп Авдеев, Артем Маркарьян, Сергей Годин, Артем Ткаченко
Описание:
В недалеком будущем что-то произошло. Связь с большей частью населенных пунктов Земли оборвалась. Космонавты передали с орбиты, что видят сверху небольшое пятно в Восточной Европе, по своим очертаниям напоминающее круг. То, что военные находят за границей этого круга, шокирует. В магазинах, в автомобилях, на дорогах, в зданиях больниц и вокзалов, повсюду - следы столкновений. Кто или что уничтожает все живое? И как долго продержится последний аванпост человечества?

Возраст: 16+ (зрителям, достигшим 16 лет)
Дата мировой премьеры: 22 ноября 2019
Дата российской премьеры: 21 ноября 2019, «Каропрокат»
Продолжительность: 02:30:27
Качество видео: TS
Перевод: Не требуется (нет диалогов и озвученных комментариев)
Субтитры: нет
Видео: Xvid, 720x304, ~1193 kbps
Аудио: AC3, 2 ch, ~128 kbps

MI

Z:\Torrents\Avanpost.2019.O.14OOMB.avi
General
Complete name : Z:\Torrents\Avanpost.2019.O.14OOMB.avi
Format : AVI
Format/Info : Audio Video Interleave
File size : 1.40 GiB
Duration : 2h 30mn
Overall bit rate : 1 330 Kbps
Writing application : VirtualDubMod 1.5.10.2 (build 2540/release)
Writing library : VirtualDubMod build 2540/release
Video #0
ID : 0
Format : MPEG-4 Visual
Format profile : Advanced [email protected]
Format settings, BVOP : 2
Format settings, QPel : No
Format settings, GMC : No warppoints
Format settings, Matrix : Default (MPEG)
Codec ID : XVID
Codec ID/Hint : XviD
Duration : 2h 30mn
Bit rate : 1 193 Kbps
Width : 720 pixels
Height : 304 pixels
Display aspect ratio : 2.35:1
Frame rate : 23.976 fps
Color space : YUV
Chroma subsampling : 4:2:0
Bit depth : 8 bits
Scan type : Progressive
Compression mode : Lossy
Bits/(Pixel*Frame) : 0.227
Stream size : 1.25 GiB (90%)
Writing library : XviD 1.2.1 (UTC 2008-12-04)
Audio #1
ID : 1
Format : AC-3
Format/Info : Audio Coding 3
Mode extension : CM (complete main)
Format settings, Endianness : Big
Codec ID : 2000
Duration : 2h 30mn
Bit rate mode : Constant
Bit rate : 128 Kbps
Channel(s) : 2 channels
Channel positions : Front: L R
Sampling rate : 48.0 KHz
Bit depth : 16 bits
Compression mode : Lossy
Stream size : 138 MiB (10%)
Alignment : Split accross interleaves
Interleave, duration : 42 ms (1.00 video frame)
Interleave, preload duration : 500 ms
Скриншоты:
     

_________________
Other forum [Profile] [PM]
Display posts from previous:    
Reply to topic

The time now is: Today 22:00

All times are GMT + 3 Hours



You cannot post new topics in this forum
You cannot reply to topics in this forum
You cannot edit your posts in this forum
You cannot delete your posts in this forum
You cannot vote in polls in this forum
You cannot attach files in this forum
You cannot download files in this forum