Today is a free download without charge Download

Аэронавты / The Aeronauts (2019) TS (VO)

Reply to topic
 
Author
Message

Clavik ®

Gender:

Longevity: 7 years 11 months

Posts: 2454

Location: Украина

Торрент-статистика

Post 14-Nov-2019 13:01

[Quote]

Аэронавты / The Aeronauts (2019) TS (VO) - Производство: Великобритания, США, Amazon Studios, Mandeville Films, One Shoe Films
Жанр: приключения, мелодрама, драма, биография
Режиссер: Том Харпер
Актеры: Фелисити Джонс, Эдди Редмэйн, Химеш Патель, Левин Ллойд, Фиби Фокс, Тим МакИннерни, Энн Рейд, Том Кортни, Ребекка Фронт, Венсан Перес
Описание:
Лондон. 1862 год. Она — очаровательная богатая молодая женщина, увлеченная управлением воздушных шаров. Он — исследователь метеоролог, готовый на все, чтобы совершить научный прорыв. Самой судьбой им было предназначено взлететь выше, чем кто-либо в истории. Вдвоем они отправятся в отчаянное путешествие на аэростате, через бури и грозы на край неизведанного мира, где воздух разряжен, а шансы на выживание невелики…

Возраст: 16+ (зрителям, достигшим 16 лет)
Рейтинг MPAA: PG-13 (детям до 13 лет просмотр нежелателен)
Дата мировой премьеры: 30 августа 2019
Дата российской премьеры: 5 декабря 2019
Релиз от: Effx
Продолжительность: 01:39:08
Качество видео: TS
Перевод: Любительский двухголосый (КОЛОБОК)
Субтитры: отсутствуют
Реклама: вырезана, банеры затерты
Видео: Xvid, 702х304, ~1907 kbps
Аудио: MP3, 2 ch, 224 kbps - VO (КОЛОБОК)

MediaInfo:

Общее
Полное имя : G:\The.Aeronauts.2019.Pk.TS-Effx.avi
Формат : AVI
Формат/Информация : Audio Video Interleave
Профиль формата : OpenDML
Размер файла : 1,49 Гбайт
Продолжительность : 1 ч. 39 м.
Общий поток : 2145 Кбит/сек
Название фильма : The.Aeronauts.2019.Pk.TS.14OOMB
Дата записи : 2019-11-14
Программа кодирования : msl
Видео
Идентификатор : 0
Формат : MPEG-4 Visual
Профиль формата : Advanced [email protected]
Параметр BVOP формата : 2
Параметр QPel формата : Нет
Параметр GMC формата : Без точки перехода
Параметр матрицы формата : Default (H.263)
Режим смешивания : Сжатый битовый поток
Идентификатор кодека : XVID
Идентификатор кодека/Подсказка : XviD
Продолжительность : 1 ч. 39 м.
Битрейт : 1907 Кбит/сек
Ширина : 720 пикселей
Высота : 304 пикселя
Соотношение сторон : 2,35:1
Частота кадров : 23,976 (24000/1001) кадра/сек
Цветовое пространство : YUV
Субдискретизация насыщенности : 4:2:0
Битовая глубина : 8 бит
Тип развёртки : Прогрессивная
Метод сжатия : С потерями
Бит/(Пиксели*Кадры) : 0.363
Размер потока : 1,32 Гбайт (89%)
Библиотека кодирования : XviD 1.2.1 (UTC 2008-12-04)
Аудио
Идентификатор : 1
Формат : MPEG Audio
Версия формата : Version 1
Профиль формата : Layer 3
Режим : Joint stereo
Идентификатор кодека : 55
Идентификатор кодека/Подсказка : MP3
Продолжительность : 1 ч. 39 м.
Вид битрейта : Постоянный
Битрейт : 224 Кбит/сек
Каналы : 2 канала
Частота : 44,1 КГц
Метод сжатия : С потерями
Размер потока : 159 Мбайт (10%)
Выравнивание : Разделение по промежуткам
Продолжительность промежутка : 26 мс. (0,63 видеокадр)
Библиотека кодирования : LAMEЄЄI·ШКсhщц¤Кт”В

Важно!

Данный релиз был сделан исключительно в ознакомительных целях, для людей которые не любят (не могут) ждать нормальное качество!
Претензии по поводу качества звука и картинки высказывать не имеет смысла. Внимательно смотрим на Качество видео.
В последствии эта раздача будет обновлена или заменена.
Другой раздачи без рекламы (до появления лицензии) вы не найдете.
Скриншоты:
       

_________________


Other forum [Profile] [PM]
Display posts from previous:    
Reply to topic

The time now is: Today 18:10

All times are GMT + 3 Hours



You cannot post new topics in this forum
You cannot reply to topics in this forum
You cannot edit your posts in this forum
You cannot delete your posts in this forum
You cannot vote in polls in this forum
You cannot attach files in this forum
You cannot download files in this forum