Today is a free download without charge Download

Discovery. Дикие эксперименты Адама Сэвиджа / Savage Builds (2019) WEB-DL [H.264/1080p-LQ] (Сезон 1, серии 8 из 8)

Reply to topic
 
Author
Message

Clavik ®

Gender:

Longevity: 6 years 11 months

Posts: 2496

Location: Украина

Торрент-статистика

Post 21-Sep-2019 16:52

[Quote]

Дикие эксперименты Адама Сэвиджа / Savage Builds (2019) HDTVRip [H.264/1080p-LQ] (Сезон 1, серии 8 из 8) - Производство: США, Discovery, Whalerock Industries, Savage Industries, Science Channel
Жанр: Документальный, реалити-шоу, эксперименты
Режиссер: Ивет Солис
Участники: Адам Сэвэдж, Джон Маркус, Маркос Рамирес, Джен Шехтер, Сальваторе Белечи, Крейг Брайс, Питер Джексон, Кристи Джилли-Рехак, Лаура Кампф, Гэри Олдман
Описание:
Легендарный изобретатель, конструктор и мастер на все руки Адам Сэвидж решил исполнить свои самые смелые мечты, а точнее, задуманные им невероятные проекты. При этом Адам обращается за помощью и вдохновением к своим героям — изобретателям и нестандартно мыслящим новаторам науки и техники, с которыми он очень хотел поработать. Вместе они создают инновационные предметы из мира поп-культуры, вселенной супергероев, городских легенд и мифов. Обладая даром заряжать окружающих своей бешеной энергетикой, Адам гарантирует, что увлечет своими инженерными проектами всех зрителей без исключения.

Продолжительность: серии x ~00:44:00
Качество видео: WEB-DL
Перевод: Двуголосый закадровый, профессиональный
Субтитры: отсутствуют
Видео: AVC/H.264, 1920x1080, ~6400 Kbps
Аудио:#1 AAC, 2 ch, 160 Kbps
Аудио:#2 AAC, 2 ch, 160 Kbps

Mediainfo: (тех. данные всех серий идентичны)

Общее
Уникальный идентификатор : 215632419320749271177612743154154352909 (0xA2394B18017CB3B0B548CA3D2E70310D)
Полное имя : F:\КИНО\Savage Builds S01\Savage.Builds.S01E03.Mad.Max.Melee.1080p.mkv
Формат : Matroska
Версия формата : Version 4
Размер файла : 2,06 Гбайт
Продолжительность : 44 м. 3 с.
Общий поток : 6711 Кбит/сек
Дата кодирования : UTC 2019-08-16 08:05:08
Программа кодирования : mkvmerge v9.2.0 ('Photograph') 64bit
Библиотека кодирования : libebml v1.3.3 + libmatroska v1.4.4
Видео
Идентификатор : 1
Формат : AVC
Формат/Информация : Advanced Video Codec
Профиль формата : [url=mailto:[email protected]][email protected][/url]
Настройки формата : CABAC / 4 Ref Frames
Параметр CABAC формата : Да
Параметр RefFrames формата : 4 кадра
Идентификатор кодека : V_MPEG4/ISO/AVC
Продолжительность : 44 м. 3 с.
Битрейт : 6400 Кбит/сек
Ширина : 1920 пикселей
Высота : 1080 пикселей
Соотношение сторон : 16:9
Режим частоты кадров : Постоянный
Частота кадров : 25,000 кадров/сек
Цветовое пространство : YUV
Субдискретизация насыщенности : 4:2:0
Битовая глубина : 8 бит
Тип развёртки : Прогрессивная
Бит/(Пиксели*Кадры) : 0.123
Размер потока : 1,97 Гбайт (95%)
Библиотека кодирования : x264 core 157
Настройки программы : cabac=1 / ref=3 / deblock=1:0:0 / analyse=0x3:0x133 / me=hex / subme=9 / psy=1 / psy_rd=1.00:0.00 / mixed_ref=1 / me_range=16 / chroma_me=1 / trellis=2 / 8x8dct=1 / cqm=0 / deadzone=21,11 / fast_pskip=1 / chroma_qp_offset=-2 / threads=34 / lookahead_threads=2 / sliced_threads=0 / nr=0 / decimate=1 / interlaced=0 / bluray_compat=0 / constrained_intra=0 / bframes=3 / b_pyramid=2 / b_adapt=2 / b_bias=0 / direct=3 / weightb=1 / open_gop=0 / weightp=2 / keyint=50 / keyint_min=26 / scenecut=0 / intra_refresh=0 / rc_lookahead=60 / rc=cbr / mbtree=1 / bitrate=6400 / ratetol=1.0 / qcomp=0.60 / qpmin=0 / qpmax=69 / qpstep=4 / vbv_maxrate=6400 / vbv_bufsize=32000 / nal_hrd=none / filler=0 / ip_ratio=1.40 / aq=1:1.00
Язык : English
Default : Да
Forced : Нет
Аудио #1
Идентификатор : 2
Формат : AAC LC
Формат/Информация : Advanced Audio Codec Low Complexity
Идентификатор кодека : A_AAC-2
Продолжительность : 44 м. 3 с.
Битрейт : 160 Кбит/сек
Каналы : 2 канала
ChannelLayout : L R
Частота : 48,0 КГц
Частота кадров : 46,875 кадров/сек (1024 SPF)
Метод сжатия : С потерями
Размер потока : 50,4 Мбайт (2%)
Язык : Russian
Default : Да
Forced : Нет
Аудио #2
Идентификатор : 3
Формат : AAC LC
Формат/Информация : Advanced Audio Codec Low Complexity
Идентификатор кодека : A_AAC-2
Продолжительность : 44 м. 3 с.
Битрейт : 160 Кбит/сек
Каналы : 2 канала
ChannelLayout : L R
Частота : 48,0 КГц
Частота кадров : 46,875 кадров/сек (1024 SPF)
Метод сжатия : С потерями
Размер потока : 50,4 Мбайт (2%)
Язык : English
Default : Нет
Forced : Нет

Содержание:

01. Building Iron Man / Железный человек
Специалист по спецэффектам Адам Сэвидж создаёт костюм Железного человека из титана. Он должен быть пуленепробиваемым и взрывоустойчивым, а также уметь летать.
02. Wheel Of Death / Колесо смерти
Адам и инженер НАСА создают экспериментальное супероружие с ракетными двигателями, которое могло бы изменить ход Второй мировой войны.
03. Mad Max Melee / Безумный Макс
Адам и его коллеги создают несколько автомобилей из мусора, как в фильме Безумный Макс, чтобы узнать, чей моторизованный монстр получится самым ужасным.
04. Forging Excalibur / Экскалибур
Адам и мастер по изготовлению мечей выковывают из железного метеорита легендарный Экскалибур, меч короля Артура.
05. Nitro Explode-Aganza / Нитроглицерин
Адам и эксперт по сносу зданий проводят серию смелых экспериментов с нитроглицерином, одним из самых взрывоопасных веществ в мире.
06 Hollywood's Deadliest Weapon / Самое опасное оружие Голливуда
Адам вместе с актером Гэри Олдменом соорудит поистине смертоносное оружие — многофункциональный штурмовой автомат ZF-1 из фантастического фильма «Пятый элемент».
07 Mega Food Fight / Смертоносные хот-доги
Адам и его приятель Тори Белечи из программы «Разрушители легенд» соорудят скорострельное оружие, превращающее обычные хот-доги в разрушительные снаряды.
08 Dogfight Derby / Воздушный бой
Адам вместе с режиссером кинотрилогии «Властелин колец» Питером Джексоном воссоздаст воздушный бой истребителей времен Первой мировой войны.
Скриншоты:
       

_________________


Other forum [Profile] [PM]
Display posts from previous:    
Reply to topic

The time now is: Today 08:41

All times are GMT + 3 Hours



You cannot post new topics in this forum
You cannot reply to topics in this forum
You cannot edit your posts in this forum
You cannot delete your posts in this forum
You cannot vote in polls in this forum
You cannot attach files in this forum
You cannot download files in this forum