Today is a free download without charge Download

Discovery: Жизнь отвратительных животных / Nasty by Nature (2008) HDTV [H.264/1080i]

Reply to topic
 
Author
Message

Clavik ®

Gender:

Longevity: 6 years 11 months

Posts: 2496

Location: Украина

Торрент-статистика

Post 12-Sep-2019 12:59

[Quote]

Жизнь отвратительных животных / Nasty by Nature (2008) HDTV [H.264/1080i] - Производство: США, Pangolin Pictures, Discovery Channel
Жанр: Документальный, природа, флора, фауна
Режиссер: Джоэль Аллен, Кевин Бачар
Описание:
Некоторые животные в борьбе за выживание используют секретное оружие - слизь и экскременты. То, что им помогает, вызывает отвращение у нас. Почему природа создала их такими? В поисках ответов ученые не остановятся ни перед чем и пройдут любые препятствия. Зловонные существа, кровопийцы и падальщики, таков способ их выживания. Так устроена жизнь отвратительных животных. Добро пожаловать в мир паразитов, слизи, рвоты, гниения, падали и экскрементов.
Возраст: 16+ (рекомендован зрителям достигшим 16 лет)
Релиз от: CLIPMAN
Продолжительность: 00:43:34
Качество видео: HDTV
Перевод: Одноголосый закадровый, профессиональный (Первый ТВЧ)
Субтитры: отсутствуют
Видео: AVC/H.264, 1920x1080, ~12,5 Mbps
Аудио: AC3, 2 ch, 448 Kbps

Mediainfo:

Общее
Идентификатор : 1 (0x1)
Полное имя : F:\КИНО\Жизнь отвратительных животных_HDTV_by_CLIPMAN.ts
Формат : MPEG-TS
Размер файла : 4,16 Гбайт
Продолжительность : 43 м. 34 с.
Режим общего битрейта : Переменный
Общий поток : 13,7 Мбит/сек
Видео
Идентификатор : 3011 (0xBC3)
Идентификатор меню : 1 (0x1)
Формат : AVC
Формат/Информация : Advanced Video Codec
Профиль формата : [email protected]
Настройки формата : CABAC / 3 Ref Frames
Параметр CABAC формата : Да
Параметр RefFrames формата : 3 кадра
Идентификатор кодека : 27
Продолжительность : 43 м. 34 с.
Битрейт : 12,5 Мбит/сек
Ширина : 1920 пикселей
Высота : 1080 пикселей
Соотношение сторон : 16:9
Частота кадров : 25,000 кадров/сек
Стандарт вещания : Component
Цветовое пространство : YUV
Субдискретизация насыщенности : 4:2:0
Битовая глубина : 8 бит
Тип развёртки : Чересстрочная
Метод сохранения типа развёртки : Раздельные поля
Порядок развёртки : Верхнее поле первое
Бит/(Пиксели*Кадры) : 0.242
Размер потока : 3,82 Гбайт (92%)
Цветовой диапазон : Limited
Основные цвета : BT.709
Характеристики трансфера : BT.709
Коэффициенты матрицы : BT.709
Аудио
Идентификатор : 3013 (0xBC5)
Идентификатор меню : 1 (0x1)
Формат : AC-3
Формат/Информация : Audio Coding 3
Коммерческое название : Dolby Digital
Идентификатор кодека : 6
Продолжительность : 43 м. 34 с.
Вид битрейта : Постоянный
Битрейт : 448 Кбит/сек
Каналы : 2 канала
ChannelLayout : L R
Частота : 48,0 КГц
Частота кадров : 31,250 кадров/сек (1536 SPF)
Метод сжатия : С потерями
Задержка видео : -40 мс.
Размер потока : 140 Мбайт (3%)
Язык : Russian
ServiceKind/String : Complete Main
Скриншоты:
       

_________________


Other forum [Profile] [PM]
Display posts from previous:    
Reply to topic

The time now is: Today 09:16

All times are GMT + 3 Hours



You cannot post new topics in this forum
You cannot reply to topics in this forum
You cannot edit your posts in this forum
You cannot delete your posts in this forum
You cannot vote in polls in this forum
You cannot attach files in this forum
You cannot download files in this forum