Today is a free download without charge Download

Универсальный солдат 4 / Universal Soldier: Day of Reckoning (2012, Фантастика, боевик, VODRip)

Reply to topic
 
Author
Message

Meshanik ®

Gender:

Longevity: 9 years

Posts: 3866

Location: Los Angeles

Торрент-статистика

Post 02-Nov-2012 18:10

[Quote]

Универсальный солдат 4 / Universal Soldier: Day of Reckoning- Русское название: Универсальный солдат 4
Оригинальное название: Universal Soldier: Day of Reckoning
Год выпуска: 2012
Производство: CША / Foresight Unlimited, Signature Pictures, Baumgarten Management
Жанр: Фантастика, Боевик
Продолжительность: 01:53:20
Перевод: Дублированный [Лицензия]
Субтитры: Отсутствуют-Дата мировой премьеры: 23 августа 2012
Дата российской премьеры: 4 октября 2012, «Люксор»
Дата выхода DVD релиза: 5 ноября 2012, «Новый Диск»
Режиссер: Джон Хайамс
Продюсер: Аллен Шапиро, Крэйг Баумгартен, Моше Дайамант
В ролях: Жан-Клод Ван Дамм, Дольф Лундгрен, Скотт Эдкинс, Кристофер Ван Варенберг, Дэвид Дженсен, Остин Нолти, Рой Джонс мл., Мария Боннер, Рас Блэквелл, Джеймс ДюМонт-Описание фильма:
Настоящее время. Программа «Unisol» по-прежнему актуальна и снова введена в эксплуатацию. Давним и непримиримым врагам времён Вьетнамской войны Эндрю Скотту и Люку Деверо суждено встретиться в очередной раз, дабы продолжить своё извечное противостояние и нескончаемую борьбу. Однако, новые опасности и трудности заставляют двух солдат на время объединиться пред лицом общей неприятности, что весьма ненадолго. Ясно одно: кровавый исход и брутальный финал неизбежен…- -Качество: VODRip
Формат: AVI
Видео кодек: XviD
Аудио кодек: AC3
Видео: 1279 kb/s, 720x304, 23.976, 0.244 bit/pixel
Аудио: AC3,44.100 kHz, MPEG Layer 3, 2 ch, ~448 kbps avg
-

MediaInfo

Код:
Общее
Полное имя : D:\торрент-раздачи\Universalnyj.soldat.4.2012.D.VODRip.avi
Формат : AVI
Формат/Информация : Audio Video Interleave
Профиль формата : OpenDML
Размер файла : 2,05 Гбайт
Продолжительность : 1 ч. 53 м.
Общий поток : 2594 Кбит/сек
Название фильма : Universalnyj.soldat.4.2012.D.VODRip
Жанр : Action | Sci-Fi | Thriller
Программа кодирования : VirtualDubMod 1.5.10.2 (build 2540/release)
Формат оригинала/Имя : Movie
Видео
Идентификатор : 0
Формат : MPEG-4 Visual
Профиль формата : Advanced [email protected]
Параметр BVOP формата : 2
Параметр QPel формата : Нет
Параметр GMC формата : Без точки перехода
Параметр матрицы формата : Выборочная
Идентификатор кодека : XVID
Идентификатор кодека/Подсказка : XviD
Продолжительность : 1 ч. 53 м.
Битрейт : 1935 Кбит/сек
Ширина : 720 пикселей
Высота : 304 пикселя
Соотношение сторон : 2,35:1
Частота кадров : 23,976 кадра/сек
Цветовое пространство : YUV
Субдискретизация насыщенности : 4:2:0
Битовая глубина : 8 бит
Тип развёртки : Прогрессивная
Метод сжатия : С потерями
Бит/(Пиксели*Кадры) : 0.369
Размер потока : 1,53 Гбайт (75%)
Библиотека кодирования : XviD 1.2.1 (UTC 2008-12-04)
Аудио #1
Идентификатор : 1
Формат : AC-3
Формат/Информация : Audio Coding 3
Расширение режима : CM (complete main)
Параметр Endianness формата : Big
Идентификатор кодека : 2000
Продолжительность : 1 ч. 53 м.
Вид битрейта : Постоянный
Битрейт : 448 Кбит/сек
Каналы : 6 каналов
Расположение каналов : Front: L C R, Side: L R, LFE
Частота : 48,0 КГц
Битовая глубина : 16 бит
Метод сжатия : С потерями
Размер потока : 363 Мбайт (17%)
Выравнивание : Разделение по промежуткам
Продолжительность промежутка : 42 мс. (1,00 видеокадр)
Время предзагрузки промежутка : 500 мс.
Аудио #2
Идентификатор : 2
Формат : AC-3
Формат/Информация : Audio Coding 3
Расширение режима : CM (complete main)
Параметр Endianness формата : Big
Идентификатор кодека : 2000
Продолжительность : 1 ч. 53 м.
Вид битрейта : Постоянный
Битрейт : 192 Кбит/сек
Каналы : 2 канала
Расположение каналов : Front: L R
Частота : 48,0 КГц
Битовая глубина : 16 бит
Метод сжатия : С потерями
Размер потока : 156 Мбайт (7%)
Выравнивание : Разделение по промежуткам
Продолжительность промежутка : 42 мс. (1,00 видеокадр)
Время предзагрузки промежутка : 500 мс.

Скриншоты

         
Other forum [Profile] [PM]
Display posts from previous:    
Reply to topic

The time now is: Today 00:28

All times are GMT + 3 Hours



You cannot post new topics in this forum
You cannot reply to topics in this forum
You cannot edit your posts in this forum
You cannot delete your posts in this forum
You cannot vote in polls in this forum
You cannot attach files in this forum
You cannot download files in this forum