Today is a free download without charge Download

Discovery. Почему пал Древний Египет? / Why Ancient Egypt Fell (2008) HDTV [H.264/1080i]

Reply to topic
 
Author
Message

RazBoyNik ®

Gender:

Longevity: 6 years 11 months

Posts: 471

Торрент-статистика

Post 05-Jul-2019 13:56

[Quote]

Почему пал Древний Египет? / Why Ancient Egypt Fell (2008) HDTV [H.264/1080i] - Год выпуска: 2008
Страна: Великобритания, IWC Media Productions
Жанр: Документальный, история, исследования
Режиссер: Габриэлла Поллетта
Описание:
Более 4000 лет назад древнее царство Египта было величайшей цивилизацией на Земле. Фараоны правили процветающей империей, а колоссальные пирамиды господствовали над линией горизонта. Но на вершине своей мощи эта могучая империя пала, оставив после себя одну из величайших загадок древнего мира. Как это случилось и почему? Согласно новой теории, выдвинутой учеными, причиной упадка египетской империи могло быть глобальное потепление...
Продолжительность: 00:42:00
Качество видео: HDTV
Перевод: Одноголосый закадровый, профессиональный
Субтитры: отсутствуют
Видео: AVC/H.264, 1920x1080, ~12,1 Mbps
Аудио#1: AC3, 2 ch, 192 Kbps | Русский
Аудио#2: AC3, 6 ch, 384 Kbps | Английский

Mediainfo:

Общее
Идентификатор : 1 (0x1)
Полное имя : F:\КИНО\Why.Ancient.Egypt.Fell.(2008).1080i.HDTV.Rus.Eng_HDClub.ts
Формат : MPEG-TS
Размер файла : 3,92 Гбайт
Продолжительность : 42 м. 0 с.
Режим общего битрейта : Переменный
Общий поток : 13,3 Мбит/сек
Максимальный общий битрейт : 35,5 Мбит/сек
Видео
Идентификатор : 4113 (0x1011)
Идентификатор меню : 1 (0x1)
Формат : MPEG Video
Версия формата : Version 2
Профиль формата : [email protected]
Настройки формата : CustomMatrix / BVOP
Параметр BVOP формата : Да
Параметр матрицы формата : Выборочная
Параметр GOP формата : Variable
Структура изображения : Frame
Идентификатор кодека : 2
Продолжительность : 42 м. 0 с.
Вид битрейта : Переменный
Битрейт : 12,1 Мбит/сек
Максимальный битрейт : 18,0 Мбит/сек
Ширина : 1920 пикселей
Высота : 1080 пикселей
Соотношение сторон : 16:9
Частота кадров : 29,970 (30000/1001) кадров/сек
Стандарт вещания : Component
Цветовое пространство : YUV
Субдискретизация насыщенности : 4:2:0
Битовая глубина : 8 бит
Тип развёртки : Чересстрочная
Порядок развёртки : Верхнее поле первое
Метод сжатия : С потерями
Бит/(Пиксели*Кадры) : 0.195
Временной код первого кадра : 00:00:00;00
Оригинал временного кода : Group of pictures header
GOP, открыто/закрыто : Открыто
GOP, открыто/закрыто на первом кадре : Закрыто
Размер потока : 3,55 Гбайт (91%)
Основные цвета : BT.709
Характеристики трансфера : BT.709
Коэффициенты матрицы : BT.709
Аудио #1
Идентификатор : 4352 (0x1100)
Идентификатор меню : 1 (0x1)
Формат : AC-3
Формат/Информация : Audio Coding 3
Коммерческое название : Dolby Digital
Идентификатор кодека : 129
Продолжительность : 42 м. 0 с.
Вид битрейта : Постоянный
Битрейт : 192 Кбит/сек
Каналы : 2 канала
ChannelLayout : L R
Частота : 48,0 КГц
Частота кадров : 31,250 кадров/сек (1536 SPF)
Битовая глубина : 16 бит
Метод сжатия : С потерями
Размер потока : 57,7 Мбайт (1%)
Язык : Russian
ServiceKind/String : Complete Main
Аудио #2
Идентификатор : 4353 (0x1101)
Идентификатор меню : 1 (0x1)
Формат : AC-3
Формат/Информация : Audio Coding 3
Коммерческое название : Dolby Digital
Идентификатор кодека : 129
Продолжительность : 42 м. 0 с.
Вид битрейта : Постоянный
Битрейт : 384 Кбит/сек
Каналы : 6 каналов
ChannelLayout : L R C LFE Ls Rs
Частота : 48,0 КГц
Частота кадров : 31,250 кадров/сек (1536 SPF)
Битовая глубина : 16 бит
Метод сжатия : С потерями
Размер потока : 115 Мбайт (3%)
Язык : English
ServiceKind/String : Complete Main
Текст #1
Идентификатор : 4113 (0x1011)-CC1
Идентификатор меню : 1 (0x1)
Формат : EIA-608
Режим смешивания : A/53 / DTVCC Transport
Режим смешивания, доп. информация : Muxed in Video #1
Продолжительность : 42 м. 0 с.
Вид битрейта : Постоянный
Размер потока : 0,00 байт (0%)
CaptionServiceName : CC1
Текст #2
Идентификатор : 4113 (0x1011)-1
Идентификатор меню : 1 (0x1)
Формат : EIA-708
Режим смешивания : A/53 / DTVCC Transport
Режим смешивания, доп. информация : Muxed in Video #1
Продолжительность : 42 м. 0 с.
Вид битрейта : Постоянный
Размер потока : 0,00 байт (0%)
Скриншоты:
       
Other forum [Profile] [PM]
Display posts from previous:    
Reply to topic

The time now is: Today 10:38

All times are GMT + 3 Hours



You cannot post new topics in this forum
You cannot reply to topics in this forum
You cannot edit your posts in this forum
You cannot delete your posts in this forum
You cannot vote in polls in this forum
You cannot attach files in this forum
You cannot download files in this forum