Today is a free download without charge Download

Пятьдесят самых зрелищных схваток с акулами / Shark Week. 50 Best Bites (2018) HDTV [H.264/1080i-LQ]

Reply to topic
 
Author
Message

RazBoyNik ®

Gender:

Longevity: 6 years 11 months

Posts: 471

Торрент-статистика

Post 05-Jul-2019 13:40

[Quote]

Пятьдесят самых зрелищных схваток с акулами / Shark Week 50 Best Bites (2018) HDTV [H.264/1080i-LQ] - Год выпуска: 2018
Страна: США, All3 Media, Main Event Media for Discovery Channel
Жанр: Документальный, природа, фауна
Режиссер: Джимми Фокс
Участники: Крис Кук, Марк Аддисон, Джули Андерсен
Описание:
Миллионы людей каждый год устремляются в отпуск на побережье, но некоторым несчастным он может стоить жизни.
Спецвыпуск с участием знаменитостей, посвященный 30-летию Недели акул. Вас ждут потрясающие подводные съемки, жуткие кадры нападений подводных хищников и столкновений с ними.
Продолжительность: 01:26:05
Качество видео: HDTV
Перевод: Одноголосый закадровый, профессиональный (Мобильное Телевидение)
Субтитры: отсутствуют
Видео: AVC/H.264, 1920x1080, ~7458 Kbps, 50fps
Аудио#1: AC3, 6 ch, 384 Kbps | Русский (читает: Серей Казаков)
Аудио#2: AC3, 6 ch, 384 Kbps | Английский

Mediainfo:

Общее
Уникальный идентификатор : 190331772792894013570912573362561351800 (0x8F3090E93E59C1D52439582F63BC0078)
Полное имя : F:\КИНО\Пятьдесят самых зрелищных схваток с акулами - Shark week 50 best bites.mkv
Формат : Matroska
Версия формата : Version 4
Размер файла : 4,95 Гбайт
Продолжительность : 1 ч. 26 м.
Общий поток : 8230 Кбит/сек
Дата кодирования : UTC 2018-07-26 13:30:35
Программа кодирования : mkvmerge v21.0.0 ('Tardigrades Will Inherit The Earth') 64-bit
Библиотека кодирования : libebml v1.3.5 + libmatroska v1.4.8
Видео
Идентификатор : 1
Формат : AVC
Формат/Информация : Advanced Video Codec
Профиль формата : [email protected]
Настройки формата : CABAC / 4 Ref Frames
Параметр CABAC формата : Да
Параметр RefFrames формата : 4 кадра
Идентификатор кодека : V_MPEG4/ISO/AVC
Продолжительность : 1 ч. 26 м.
Битрейт : 7458 Кбит/сек
Ширина : 1920 пикселей
Высота : 1080 пикселей
Соотношение сторон : 16:9
Режим частоты кадров : Переменный
Частота кадров : 50,000 кадров/сек
Частота кадров в оригинале : 25,000 кадров/сек
Стандарт вещания : Component
Цветовое пространство : YUV
Субдискретизация насыщенности : 4:2:0
Битовая глубина : 8 бит
Тип развёртки : Чересстрочная
Метод сохранения типа развёртки : Раздельные поля
Порядок развёртки : Верхнее поле первое
Бит/(Пиксели*Кадры) : 0.072
Размер потока : 4,48 Гбайт (91%)
Default : Да
Forced : Нет
Цветовой диапазон : Limited
Основные цвета : BT.709
Характеристики трансфера : BT.709
Коэффициенты матрицы : BT.709
Аудио #1
Идентификатор : 2
Формат : AC-3
Формат/Информация : Audio Coding 3
Коммерческое название : Dolby Digital
Идентификатор кодека : A_AC3
Продолжительность : 1 ч. 26 м.
Вид битрейта : Постоянный
Битрейт : 384 Кбит/сек
Каналы : 6 каналов
ChannelLayout : L R C LFE Ls Rs
Частота : 48,0 КГц
Частота кадров : 31,250 кадров/сек (1536 SPF)
Битовая глубина : 16 бит
Метод сжатия : С потерями
Размер потока : 236 Мбайт (5%)
Заголовок : Russian
Язык : Russian
ServiceKind/String : Complete Main
Default : Да
Forced : Нет
Аудио #2
Идентификатор : 3
Формат : AC-3
Формат/Информация : Audio Coding 3
Коммерческое название : Dolby Digital
Идентификатор кодека : A_AC3
Продолжительность : 1 ч. 26 м.
Вид битрейта : Постоянный
Битрейт : 384 Кбит/сек
Каналы : 6 каналов
ChannelLayout : L R C LFE Ls Rs
Частота : 48,0 КГц
Частота кадров : 31,250 кадров/сек (1536 SPF)
Битовая глубина : 16 бит
Метод сжатия : С потерями
Размер потока : 236 Мбайт (5%)
Заголовок : Original
Язык : English
ServiceKind/String : Complete Main
Default : Нет
Forced : Нет
Скриншоты:
       
Other forum [Profile] [PM]
Display posts from previous:    
Reply to topic

The time now is: Today 17:01

All times are GMT + 3 Hours



You cannot post new topics in this forum
You cannot reply to topics in this forum
You cannot edit your posts in this forum
You cannot delete your posts in this forum
You cannot vote in polls in this forum
You cannot attach files in this forum
You cannot download files in this forum