Today is a free download without charge Download

Азартные игры / Reindeer Games (Джон Франкенхаймер / John Frankenheimer) [2000 г., триллер, криминал, детектив, BDRip 1080p] [Director's Cut] AVO (Гаврилов)

Reply to topic
 
Author
Message

Delia ®

Gender:

Longevity: 11 years

Posts: 1821

Торрент-статистика

Post 01-Nov-2012 14:23

[Quote]

Азартные игрыReindeer Games«The trap is set. The game is on.»-- Год выпуска: 2000
Страна: США
Жанр: боевик, триллер, драма, криминал
Продолжительность: 02:04:35
Перевод: Авторский (А.Гаврилов )
Режиссер: Джон Франкенхаймер / John Frankenheimer
Сценарий: Эрен Крюгер / Ehren Kruger
Продюсер: Кэри Грэнат / Cary Granat, Кэйси Грант / Casey Grant, Марк Индиг / Mark Indig, Марти Кац / Marty Katz, Крис Мур / Chris Moore
Оператор: Алан Казо / Alan Caso
Композитор: Алан Сильвестри / Alan Silvestri В ролях: Бен Аффлек (Rudy Duncan), Гэри Синиз (Gabriel Mercer), Шарлиз Терон (Ashley Mercer), Деннис Фарина (Jack Bangs), Джеймс Фрейн (Nick Cassidy), Донал Лог (Pug), Дэнни Трехо (Jumpy), Айзек Хейз (Zook), Гордон Тутусис (Old Governor), Дана Стаблфилд (The Alamo), Кларенс Уильямс III (Merlin), Марк Эчесон (Mean Guard)
Описание: Ловушки расставлены. Для дерзкого ограбления банде головорезов нужен некий Ник, знакомый с охранной системой процветающего казино. Вскоре он должен выйти из тюрьмы.
В качестве приманки на встречу ему посылают красавицу Эшли, которая вела с ним заочную романтическую переписку. Ничего не подозревающий друг Ника - Руди решает выдать себя за него, чтобы познакомиться с загадочной девушкой. И теперь эта азартная игра может стоить ему жизни...

Бюджет: $42 000 000
Маркетинг: $20 000 000
Сборы в США: $23 368 995
Сборы в мире: $32 168 970

MPAA: - Лицам до 17 лет обязательно присутствие взрослого

Качество: BDRip
Контейнер: MKV
Видео: AVC, 1920x816 (2.35:1), 8239 kbps, 23,976 fps, 0,219 bpp
Аудио №1: русский /; AC3 /; 5.1 /; 48 kHz /; 448 kbps /; 16 bit; |А.Гаврилов |
Аудио №2: английский /; AC3 /; 5.1 /; 48 kHz /; 448 kbps /; 16 bit
Субтитры: английские

Media Info

General
Unique ID : 247531814095204708585427512577036708919 (0xBA38E4AF02A199C8B4329D2D954CEC37)
Complete name : E:\\Reindeer.Games.2000.BDRip-F.HD.mkv
Format : Matroska
Format version : Version 2
File size : 7.95 GiB
Duration : 2h 4mn
Overall bit rate : 9 134 Kbps
Encoded date : UTC 2012-11-01 07:27:03
Writing application : mkvmerge v5.8.0 (\'No Sleep / Pillow\') built on Sep 2 2012 15:37:04
Writing library : libebml v1.2.3 + libmatroska v1.3.0
Video
ID : 1
Format : AVC
Format/Info : Advanced Video Codec
Format profile : [email protected]
Format settings, CABAC : Yes
Format settings, ReFrames : 5 frames
Codec ID : V_MPEG4/ISO/AVC
Duration : 2h 4mn
Bit rate : 8 239 Kbps
Width : 1 920 pixels
Height : 816 pixels
Display aspect ratio : 2.35:1
Frame rate : 23.976 fps
Color space : YUV
Chroma subsampling : 4:2:0
Bit depth : 8 bits
Scan type : Progressive
Bits/(Pixel*Frame) : 0.219
Stream size : 7.01 GiB (88%)
Writing library : x264 core 128 r2216 198a7ea
Encoding settings : cabac=1 / ref=5 / deblock=1:-3:-3 / analyse=0x3:0x113 / me=umh / subme=10 / psy=1 / psy_rd=1.05:0.15 / mixed_ref=1 / me_range=48 / chroma_me=1 / trellis=2 / 8x8dct=1 / cqm=0 / deadzone=21,11 / fast_pskip=0 / chroma_qp_offset=1 / threads=6 / lookahead_threads=1 / sliced_threads=0 / nr=0 / decimate=1 / interlaced=0 / bluray_compat=0 / constrained_intra=0 / bframes=8 / b_pyramid=2 / b_adapt=2 / b_bias=0 / direct=3 / weightb=1 / open_gop=0 / weightp=2 / keyint=240 / keyint_min=23 / scenecut=40 / intra_refresh=0 / rc=2pass / mbtree=0 / bitrate=8239 / ratetol=1.0 / qcomp=0.75 / qpmin=0 / qpmax=69 / qpstep=4 / cplxblur=20.0 / qblur=0.5 / ip_ratio=1.25 / pb_ratio=1.25 / aq=1:0.90
Language : English
Default : Yes
Forced : No
Color primaries : BT.709-5, BT.1361, IEC 61966-2-4, SMPTE RP177
Transfer characteristics : BT.709-5, BT.1361
Matrix coefficients : BT.709-5, BT.1361, IEC 61966-2-4 709, SMPTE RP177
Audio #1
ID : 2
Format : AC-3
Format/Info : Audio Coding 3
Mode extension : CM (complete main)
Codec ID : A_AC3
Duration : 2h 4mn
Bit rate mode : Constant
Bit rate : 448 Kbps
Channel(s) : 6 channels
Channel positions : Front: L C R, Side: L R, LFE
Sampling rate : 48.0 KHz
Bit depth : 16 bits
Compression mode : Lossy
Stream size : 399 MiB (5%)
Title : Гаврилов
Language : Russian
Default : Yes
Forced : No
Audio #2
ID : 3
Format : AC-3
Format/Info : Audio Coding 3
Mode extension : CM (complete main)
Codec ID : A_AC3
Duration : 2h 4mn
Bit rate mode : Constant
Bit rate : 448 Kbps
Channel(s) : 6 channels
Channel positions : Front: L C R, Side: L R, LFE
Sampling rate : 48.0 KHz
Bit depth : 16 bits
Compression mode : Lossy
Stream size : 399 MiB (5%)
Language : English
Default : No
Forced : No
Text
ID : 4
Format : UTF-8
Codec ID : S_TEXT/UTF8
Codec ID/Info : UTF-8 Plain Text
Language : English
Default : No
Forced : No

Скриншоты

     
     
Отличия от театральной: http://www.movie-censorship.com/report.php?ID=1417

_________________
Человек – это канат, натянутый между животным и сверхчеловеком, – канат над пропастью.
В человеке ценно то, что он мост, а не цель. Фридрих Ницше
Other forum [Profile] [PM]
Display posts from previous:    
Reply to topic

The time now is: Today 02:18

All times are GMT + 3 Hours



You cannot post new topics in this forum
You cannot reply to topics in this forum
You cannot edit your posts in this forum
You cannot delete your posts in this forum
You cannot vote in polls in this forum
You cannot attach files in this forum
You cannot download files in this forum