Today is a free download without charge Download

Никита Ивановский | Альпийское шале (2015) PCRec [H.264/1080p-LQ]

Reply to topic
 
Author
Message

}{@R0N ®

Longevity: 3 years 5 months

Posts: 7256

Торрент-статистика

Post 06-Apr-2019 12:40

[Quote]

Никита Ивановский | Альпийское шале - Автор (режиссер): Никита Ивановский
Производство: HighVisualSchool
Жанр: Обучающее видео
Описание:
После курса Вы получите хорошие знания 3D Max, Vray, Mudbox, MarvelousDesigner, Photoshop, AfterEffects, FumeFX для самостоятельной реализации архитектурных проектов любой сложности с созданием собственных моделей, материалов, аниматиков!
Продолжительность: 22:12:46
Качество видео: PCRec
Видео: AVC/H.264, 1920х1080, ~467 Kbps
Аудио: AAC, 2 ch, ~ 53,3 Kbps

Mediainfo:

Общее
Полное имя : I:\альпийское шале\SHALE_1\VEBINAR 2\LESSON_2 - сплайны, основные настройки, AutoCAD, Lathe, Extrude, Sweep\LESSON_2 - сплайны, основные настройки, AutoCAD, Lathe, Extrude, Sweep.mp4
Формат : MPEG-4
Профиль формата : Base Media / Version 2
Идентификатор кодека : mp42 (M4V /mp42/isom)
Размер файла : 660 Мбайт
Продолжительность : 2 ч. 56 м.
Общий поток : 522 Кбит/сек
Дата кодирования : UTC 2014-02-18 18:30:22
Дата пометки : UTC 2014-02-18 18:30:22
Видео
Идентификатор : 1
Формат : AVC
Формат/Информация : Advanced Video Codec
Профиль формата : [email protected]
Настройки формата : CABAC / 4 Ref Frames
Параметр CABAC формата : Да
Параметр RefFrames формата : 4 кадра
Параметр GOP формата : M=1, N=75
Идентификатор кодека : avc1
Идентификатор кодека/Информация : Advanced Video Coding
Продолжительность : 2 ч. 56 м.
Продолжительность оригинала : 2 ч. 56 м.
Битрейт : 467 Кбит/сек
Ширина : 1920 пикселей
Высота : 1080 пикселей
Соотношение сторон : 16:9
Режим частоты кадров : Постоянный
Частота кадров : 15,000 кадров/сек
Цветовое пространство : YUV
Субдискретизация насыщенности : 4:2:0
Битовая глубина : 8 бит
Тип развёртки : Прогрессивная
Бит/(Пиксели*Кадры) : 0.015
Размер потока : 589 Мбайт (89%)
Размер потока оригинала : 589 Мбайт (89%)
Язык : English
Дата кодирования : UTC 2014-02-18 18:30:22
Дата пометки : UTC 2014-02-18 18:30:22
Цветовой диапазон : Limited
Основные цвета : BT.709
Характеристики трансфера : BT.709
Коэффициенты матрицы : BT.709
mdhd_Duration : 10598425
Codec configuration box : avcC
Аудио
Идентификатор : 2
Формат : AAC LC
Формат/Информация : Advanced Audio Codec Low Complexity
Идентификатор кодека : mp4a-40-2
Продолжительность : 2 ч. 56 м.
Продолжительность оригинала : 2 ч. 56 м.
Вид битрейта : Постоянный
Битрейт : 53,3 Кбит/сек
Каналы : 2 канала
Channel layout : L R
Частота : 44,1 КГц
Частота кадров : 43,066 кадра/сек (1024 SPF)
Метод сжатия : С потерями
Размер потока : 67,7 Мбайт (10%)
Размер потока оригинала : 67,7 Мбайт (10%)
Язык : English
Дата кодирования : UTC 2014-02-18 18:30:22
Дата пометки : UTC 2014-02-18 18:30:22
mdhd_Duration : 10651572
Скриншоты:
       
Other forum [Profile] [PM]
Similar theme
Forum Topic Author Torrent Replies Last Post
./templates/default/images/folder_dl.gif Психология, Тренинг, Саморазвитие Никита Непряхин | Я манипулирую тобой. Методы противодействия скрытому влиянию (2018) [PDF] }{@R0N
1 | 0

0 | 422

5

2018-07-31 22:13
}{@R0N Latest
Display posts from previous:    
Reply to topic

The time now is: Today 03:13

All times are GMT + 3 Hours



You cannot post new topics in this forum
You cannot reply to topics in this forum
You cannot edit your posts in this forum
You cannot delete your posts in this forum
You cannot vote in polls in this forum
You cannot attach files in this forum
You cannot download files in this forum