Today is a free download without charge Download

Александр Буйнов - Две жизни [2012 г., Pop, HDTV]

Reply to topic
 
Author
Message

sergej644 ®

Gender:

Longevity: 8 years 8 months

Posts: 661

Location: Klaipeda

Торрент-статистика

Post 27-Oct-2012 13:15

[Quote]

-Александр Буйнов - Две жизни- -
Год выпуска: 2012
Страна: Россия
Жанр: Pop
Продолжительность: 00:03:22
-
Описание: Алексaндр Николaевич Буйнoв (род. 24 марта 1950, Москва) — советский и российский певец, клавишник, автор песен, шоумен. Заслуженный артист России (2002). Народный артист Российской Федерации (2010).Народный артист Ингушетии. Дебютировал как клавишник в группе «Скоморохи», где заявил о себе как композитор. Покинул группу в связи с уходом в армию. После демобилизации играл в группе «Аракс», в ансамбле «Цветы». С 1973 по май 1989 года — клавишник ансамбля «Весёлые ребята», в котором за 16 лет работы получил всесоюзную популярность. В составе ансамбля записал много популярных песен, принимал участие в фестивале поп-музыки «Ереван-81», в международном конкурсе «Братиславская лира» (1985) (Гран-при). Участвовал в записи пластинок ансамбля «Весёлые ребята»: «Любовь — огромная страна», «Дружить нам надо», «Музыкальный глобус», «Дискоклуб-2», «Минуточку!!!», магнитоальбома «Банановые острова». В составе ансамбля неоднократно выезжал за рубеж: Германия, Чехия, Словакия, Венгрия, Финляндия, Куба. С мая 1989 года занимается сольной карьерой.-
Качество: HDTV
Формат: MPEG
Видео кодек: AVC
Аудио кодек: AAC
Видео: 1920x1080 (16x9), 25fps, AVC, ~ 5.620 Kbps avg, 0.108 bit/pixel
Аудио: 44.1 KHz, 2 ch, stereo, AAC, ~ 152 Kbps avg
-

MI


Общее
Полное имя : T:\torrent files\Александр Буйнов - Две жизни.mp4
Формат : MPEG-4
Профиль формата : Base Media / Version 2
Идентификатор кодека : mp42
Размер файла : 139 Мбайт
Продолжительность : 3 м. 22 с.
Режим общего битрейта : Переменный
Общий поток : 5775 Кбит/сек
Дата кодирования : UTC 2012-05-02 13:30:02
Дата пометки : UTC 2012-05-02 13:30:02
gsst : 0
gstd : 202710
gssd : B4A7D6CE2HH1344196756208112
gshh : o-o---preferred---bud01s17---v7---lscache8.c.youtube.com
Видео
Идентификатор : 1
Формат : AVC
Формат/Информация : Advanced Video Codec
Профиль формата : [email protected]
Параметр CABAC формата : Да
Параметр ReFrames формата : 1 кадр
Параметр GOP формата : M=1, N=25
Идентификатор кодека : avc1
Идентификатор кодека/Информация : Advanced Video Coding
Продолжительность : 3 м. 22 с.
Битрейт : 5620 Кбит/сек
Максимальный битрейт : 9885 Кбит/сек
Ширина : 1920 пикселей
Высота : 1080 пикселей
Соотношение сторон : 16:9
Режим частоты кадров : Постоянный
Частота кадров : 25,000 кадров/сек
Цветовое пространство : YUV
Субдискретизация насыщенности : 4:2:0
Битовая глубина : 8 бит
Тип развёртки : Прогрессивная
Бит/(Пиксели*Кадры) : 0.108
Размер потока : 136 Мбайт (97%)
Дата пометки : UTC 2012-05-02 13:30:02
Аудио
Идентификатор : 2
Формат : AAC
Формат/Информация : Advanced Audio Codec
Профиль формата : LC
Идентификатор кодека : 40
Продолжительность : 3 м. 22 с.
Вид битрейта : Переменный
Битрейт : 152 Кбит/сек
Максимальный битрейт : 195 Кбит/сек
Каналы : 2 канала
Расположение каналов : Front: L R
Частота : 44,1 КГц
Метод сжатия : С потерями
Размер потока : 3,67 Мбайт (3%)
Заголовок : IsoMedia File Produced by Google, 5-11-2011
Дата кодирования : UTC 2012-05-02 13:30:02
Дата пометки : UTC 2012-05-02 13:30:02
-

Скриншоты

     
- -

_________________
У нас все платно: родиться, учиться, жениться, лечиться, умереть.
Бесплатно разрешено только работать.
Other forum [Profile] [PM]
Similar theme
Forum Topic Author Torrent Replies Last Post
./templates/default/images/folder_dl.gif Фантастика, фэнтези, ужасы, мистика Пелевин Виктор - Generation П [Клюквин Александр, 2013 г., 128 kbps, MP3] Omen
1 | 0

0 | 1090

0

2013-11-06 08:00
Omen Latest
./templates/default/images/folder_dl.gif Современная проза, классика, поэзия Виктор Пелевин | Generation П [Александр Клюквин] (2013) [MP3] UndegraundMen
1 | 0

0 | 865

2

2013-11-07 18:36
UndegraundMen Latest
./templates/default/images/folder_dl.gif Компьютерная литература Александр Шевчук и др. | Design Patterns via C#. Приемы объектно-ориентированного проектирования (2015) [PDF] Omen
1 | 0

0 | 2649

26

2015-03-06 21:59
Omen Latest
./templates/default/images/folder_dl.gif Психология, Тренинг, Саморазвитие Александр Свияш | Как разумные люди создают безумный мир. Негативные эмоции. Поймать и обезвредить (2018) [PDF] }{@R0N
1 | 0

0 | 2281

2

2019-03-17 22:54
}{@R0N Latest
./templates/default/images/folder_dl.gif Отечественные cериалы Ментовские войны (Егор Абросимов, Алексей Богданов, Алан Дзоциев, Сергей Раевский) (Сезон 01–11 + 2 Эпилога + 4 фильма) [2004–2018, криминал, боевик, детектив, SATRip] DED
1 | 0

0 | 1065

0

2020-03-02 16:37
DED Latest
Display posts from previous:    
Reply to topic

The time now is: Today 02:11

All times are GMT + 3 Hours



You cannot post new topics in this forum
You cannot reply to topics in this forum
You cannot edit your posts in this forum
You cannot delete your posts in this forum
You cannot vote in polls in this forum
You cannot attach files in this forum
You cannot download files in this forum