Today is a free download without charge Download

Новый Человек-паук / The Amazing Spider-Man (Марк Уэбб) [2012 г., фантастика, боевик, приключения, BDRip 1080p]

Reply to topic
 
Author
Message

BoxeR ®

Gender:

Longevity: 9 years

Posts: 423

Торрент-статистика

Post 26-Oct-2012 22:12

[Quote]

Новый Человек-паук / The Amazing Spider-Man-Год выпуска: 2012
Страна: США
Жанр: фантастика, боевик, приключения
Продолжительность: 02:16:17
Перевод: Профессиональный (полное дублирование)
Cубтитры: русские, английские-В ролях: Эндрю Гарфилд, Эмма Стоун, Рис Иванс, Дэнис Лири, Мартин Шин, Салли Филд, Эмбет Дэвидц, Кэмпбелл Скотт, Ирфан Кхан, Крис Зилка
Режиссёр: Марк Уэбб-Описание: В детстве Питер Паркер был оставлен своими родителями, и поэтому воспитывался дядей и тётей. Шли годы, Питер был обычным примерным школьником, подвергался нападкам хулиганов и был влюблён в свою одноклассницу Гвен Стейси, которая сама втайне отвечала ему взаимностью. Но после укуса генетически изменённого паука, Питер получает невероятные сверхспособности и его жизнь меняется навсегда.-Качество: BDRip 1080p
Формат: MKV
Видео кодек: AVC
Аудио кодек: AC3, DTS
Видео: 1920x804 (2.35:1), 8369 kbps, 23.976 fps
Аудио #1: Dolby AC3, 6 ch, 640 Kbps [Русский]
Аудио #2: Dolby DTS, 6 ch, 1510 Kbps [Английский]-

MI

Общее
Уникальный идентификатор : 221408542149714233473122023935254398226 (0xA691BBEFBE01776E95959010DC530512)
Полное имя : D:\Films\The.Amazing.Spiderman.2012.1080p.BDRip.mkv
Формат : Matroska
Версия формата : Version 2
Размер файла : 10,0 Гбайт
Продолжительность : 2 ч. 16 м.
Общий поток : 10,5 Мбит/сек
Дата кодирования : UTC 2012-10-25 07:16:58
Программа кодирования : mkvmerge v5.2.0 ('I can't explain') built on Dec 18 2011 18:12:03
Библиотека кодирования : libebml v1.2.3 + libmatroska v1.3.0
Видео
Идентификатор : 1
Формат : AVC
Формат/Информация : Advanced Video Codec
Профиль формата : [email protected]
Параметр CABAC формата : Да
Параметр ReFrames формата : 5 кадров
Идентификатор кодека : V_MPEG4/ISO/AVC
Продолжительность : 2 ч. 16 м.
Битрейт : 8370 Кбит/сек
Ширина : 1920 пикселей
Высота : 804 пикселя
Соотношение сторон : 2,40:1
Частота кадров : 23,976 кадра/сек
Цветовое пространство : YUV
Субдискретизация насыщенности : 4:2:0
Битовая глубина : 8 бит
Тип развёртки : Прогрессивная
Бит/(Пиксели*Кадры) : 0.226
Размер потока : 7,77 Гбайт (78%)
Библиотека кодирования : x264 core 128 r2216 198a7ea
Настройки программы : cabac=1 / ref=5 / deblock=1:0:0 / analyse=0x3:0x113 / me=umh / subme=8 / psy=1 / psy_rd=1.00:0.00 / mixed_ref=1 / me_range=16 / chroma_me=1 / trellis=1 / 8x8dct=1 / cqm=0 / deadzone=21,11 / fast_pskip=1 / chroma_qp_offset=-2 / threads=12 / lookahead_threads=2 / sliced_threads=0 / nr=0 / decimate=1 / interlaced=0 / bluray_compat=0 / constrained_intra=0 / bframes=3 / b_pyramid=2 / b_adapt=2 / b_bias=0 / direct=3 / weightb=1 / open_gop=0 / weightp=2 / keyint=240 / keyint_min=24 / scenecut=40 / intra_refresh=0 / rc_lookahead=50 / rc=2pass / mbtree=1 / bitrate=8370 / ratetol=1.0 / qcomp=0.60 / qpmin=0 / qpmax=69 / qpstep=4 / cplxblur=20.0 / qblur=0.5 / ip_ratio=1.40 / aq=1:1.00
Язык : English
Default : Да
Forced : Нет
Аудио #1
Идентификатор : 2
Формат : AC-3
Формат/Информация : Audio Coding 3
Расширение режима : CM (complete main)
Параметр Endianness формата : Big
Идентификатор кодека : A_AC3
Продолжительность : 2 ч. 16 м.
Вид битрейта : Постоянный
Битрейт : 640 Кбит/сек
Каналы : 6 каналов
Расположение каналов : Front: L C R, Side: L R, LFE
Частота : 48,0 КГц
Битовая глубина : 16 бит
Метод сжатия : С потерями
Размер потока : 624 Мбайт (6%)
Заголовок : DUB [BD EUR]
Язык : Russian
Default : Да
Forced : Нет
Аудио #2
Идентификатор : 3
Формат : DTS
Формат/Информация : Digital Theater Systems
Идентификатор кодека : A_DTS
Продолжительность : 2 ч. 16 м.
Вид битрейта : Постоянный
Битрейт : 1510 Кбит/сек
Каналы : 6 каналов
Расположение каналов : Front: L C R, Side: L R, LFE
Частота : 48,0 КГц
Битовая глубина : 24 бит
Метод сжатия : С потерями
Размер потока : 1,44 Гбайт (14%)
Заголовок : Original
Язык : English
Default : Нет
Forced : Нет
Текст #1
Идентификатор : 4
Формат : UTF-8
Идентификатор кодека : S_TEXT/UTF8
Идентификатор кодека/Информация : UTF-8 Plain Text
Язык : Russian
Default : Нет
Forced : Нет
Текст #2
Идентификатор : 5
Формат : UTF-8
Идентификатор кодека : S_TEXT/UTF8
Идентификатор кодека/Информация : UTF-8 Plain Text
Язык : English
Default : Нет
Forced : Нет
Меню
00:00:00.000 : en:00:00:00.000
00:07:45.924 : en:00:07:45.924
00:14:39.670 : en:00:14:39.670
00:22:57.543 : en:00:22:57.543
00:32:58.226 : en:00:32:58.226
00:41:25.066 : en:00:41:25.066
00:48:42.503 : en:00:48:42.503
00:55:10.933 : en:00:55:10.933
01:03:17.293 : en:01:03:17.293
01:12:29.011 : en:01:12:29.011
01:17:51.750 : en:01:17:51.750
01:24:38.949 : en:01:24:38.949
01:34:04.556 : en:01:34:04.556
01:42:59.548 : en:01:42:59.548
01:52:16.355 : en:01:52:16.355
02:00:52.912 : en:02:00:52.912

Скриншоты

         
Other forum [Profile] [PM]
Similar theme
Forum Topic Author Torrent Replies Last Post
./templates/default/images/folder_dl.gif FPS (1st Person) Антология шутеров от Sigma Team (9 в 1) [Alien Shooter, Zombie Shooter] (RUS) (Руссобит-М, 1С, Новый Диск) [Lossless Repack] от R.G. Catalyst Omen
1 | 0

2 | 1811

11

2013-04-09 18:53
Valdemar-olvi Latest
./templates/default/images/folder_dl.gif FPS (1st Person) Serious Sam Gold Edition / Крутой Сэм Золотое Издание (2001-2010) (1С-СофтКлаб / Новый Диск) (ENG+RUS) [RePack] от SeRaph1 Baracuda
1 | 0

2 | 5953

45

2012-05-30 20:01
Diavol Latest
./templates/default/images/folder_dl.gif Развлекательные телепередачи и шоу, приколы и юмор Отличный Новый год на Пятом. Российский музыкальный хит-парад интернета [эфир 01.01.2013] (2013) TVRip Omen
0 | 1

0 | 838

0

2013-01-28 04:32
Omen Latest
./templates/default/images/folder_dl.gif Техническая и научно-популярная литература В. Ц. Худавердян | Современные альтернативные движения [Молодежь Запада и «новый» иррационализм] (1986) [DJVU, PDF] UndegraundMen
1 | 0

0 | 688

1

2013-11-30 11:02
UndegraundMen Latest
./templates/default/images/folder_dl.gif Обучающее видео Clint Arthur | Новый Современный Секс / New Sex Now (2004) DVDRip Clavik
1 | 0

0 | 1153

3

2019-11-30 10:43
Clavik Latest
./templates/default/images/folder_dl.gif Новинки (HD|DVD|BD|WEB|TV|SAT|PDTV|-Rip) Самый Новый год! (Антонина Руже) [2020 г., комедия, фантастика, WEBRip ] kilmister777
1 | 0

0 | 1440

0

2020-12-31 11:26
kilmister777 Latest
Display posts from previous:    
Reply to topic

The time now is: Today 13:09

All times are GMT + 3 Hours



You cannot post new topics in this forum
You cannot reply to topics in this forum
You cannot edit your posts in this forum
You cannot delete your posts in this forum
You cannot vote in polls in this forum
You cannot attach files in this forum
You cannot download files in this forum