Today is a free download without charge Download

Resident Evil 3 - Extinction / Обитель зла 3 - Вымирание (Рассел Малкэй / Russell Mulcahy) [2007 г., Ужасы, фантастика, боевик, BDRip 1080p]

Reply to topic
 
Author
Message

Meshanik ®

Gender:

Longevity: 8 years 10 months

Posts: 3866

Location: Los Angeles

Торрент-статистика

Post 26-Oct-2012 12:45

[Quote]

-Resident Evil 3 - Extinction / Обитель зла 3 - Вымирание-«На этот раз без компромиссов»-
Год выпуска: 2007
Страна: Франция, Австралия, Германия, Великобритания, США
Жанр: Ужасы, фантастика, боевик
Продолжительность: 01:34:05
Перевод: Профессиональный (полное дублирование)
Субтитры: Русские, Английские-Режиссер: Рассел Малкэй / Russell Mulcahy
В ролях: Милла Йовович, Одед Фер, Эли Лартер, Айэйн Глен, Ашанти, Кристофер Иган, Спенсер Лок, Мэттью Мэрсден, Линден Эшби, Джейсон О’Мара, Майк Эппс, Джо Херсли-Описание: Элис, не раз уже спасавшая мир от смертельных вирусов и неминуемой гибели, вновь взялась за оружие. На этот раз ей предстоит сразиться с корпорацией «Амбрелла», работающей над реализацией зверского антигуманного проекта. Коварные политики и прагматичные ученые стремятся уничтожить людей и заменить их на более «совершенные» создания, заселив Землю неуязвимыми бессмертными клонами...-Качество: BDRip 1080p
Формат: MKV
Видео кодек: AVC
Аудио кодек: AC3, DTS
Видео: 1920x804 (2.388); 13892 Kbps; 23,976 fps
Аудио:
Русский DTS 5.1 1536 kbps (Дублированный, Парадиз-ВС)
Русский DTS 5.1 1536 kbps (Одноголосый закадровый, Юрий Живов)
Украинский AC3 2.0 192 kbps (Многоголосый, ICTV)
Английский DTS 5.1, 1536 kbps

BDInfo

Код:
Общее
Уникальный идентификатор                 : 228930036061298370618722242846812252541 (0xAC3A5237AC6B8053819D165E7277A97D)
Формат                                   : Matroska
Версия формата                           : Version 2
Размер файла                             : 12,2 Гбайт
Продолжительность                        : 1 ч. 34 м.
Общий поток                              : 18,6 Мбит/сек
Название фильма                          : Resident Evil: Extinction (2007) - Release for HDCLUB by Skazhutin
Дата кодирования                         : UTC 2012-10-25 21:42:39
Программа кодирования                    : mkvmerge v4.0.0 ('The Stars were mine') сборка от Jun  6 2010 16:18:42
Библиотека кодирования                   : libebml v1.0.0 + libmatroska v1.0.0
Attachment                               : Yes / Yes
Видео
Идентификатор                            : 1
Формат                                   : AVC
Формат/Информация                        : Advanced Video Codec
Профиль формата                          : [url=mailto:[email protected]][email protected][/url]
Параметр CABAC формата                   : Да
Параметр ReFrames формата                : 5 кадров
Идентификатор кодека                     : V_MPEG4/ISO/AVC
Битрейт                                  : 13,5 Мбит/сек
Ширина                                   : 1920 пикселей
Высота                                   : 804 пикселя
Соотношение сторон                       : 2,40:1
Режим частоты кадров                     : Переменный
Частота кадров в оригинале               : 23,976 кадра/сек
Цветовое пространство                    : YUV
Субдискретизация насыщенности            : 4:2:0
Битовая глубина                          : 8 бит
Тип развёртки                            : Прогрессивная
Заголовок                                : Release for HDCLUB
Библиотека кодирования                   : x264 core 125 r2200kMod 999b753
Настройки программы                      : cabac=1 / ref=5 / deblock=1:-2:-2 / analyse=0x3:0x113 / me=umh / subme=11 / psy=1 / fade_compensate=0.00 / psy_rd=0.90:0.00 / mixed_ref=1 / me_range=48 / chroma_me=1 / trellis=2 / 8x8dct=1 / cqm=0 / deadzone=21,11 / fast_pskip=1 / chroma_qp_offset=-2 / threads=12 / lookahead_threads=2 / sliced_threads=0 / nr=0 / decimate=1 / interlaced=0 / bluray_compat=0 / constrained_intra=0 / bframes=8 / b_pyramid=2 / b_adapt=2 / b_bias=0 / direct=1 / weightb=1 / open_gop=0 / weightp=2 / keyint=250 / keyint_min=23 / scenecut=40 / intra_refresh=0 / rc_lookahead=40 / rc=crf / mbtree=0 / crf=18.5000 / qcomp=0.60 / qpmin=0 / qpmax=69 / qpstep=4 / vbv_maxrate=50000 / vbv_bufsize=62500 / crf_max=0.0 / nal_hrd=none / ip_ratio=1.10 / pb_ratio=1.10 / aq=3:0.80
Язык                                     : English
Default                                  : Нет
Forced                                   : Нет
Коэффициенты матрицы                     : BT.709
Аудио #1
Идентификатор                            : 2
Формат                                   : DTS
Формат/Информация                        : Digital Theater Systems
Идентификатор кодека                     : A_DTS
Продолжительность                        : 1 ч. 34 м.
Вид битрейта                             : Постоянный
Битрейт                                  : 1510 Кбит/сек
Каналы                                   : 6 каналов
Расположение каналов                     : Front: L C R, Side: L R, LFE
Частота                                  : 48,0 КГц
Битовая глубина                          : 24 бит
Метод сжатия                             : С потерями
Задержка видео                           : 11 мс.
Размер потока                            : 1016 Мбайт (8%)
Заголовок                                : DTS 5.1 @ 1536 kbps - Дублированный, Парадиз-ВС
Язык                                     : Russian
Default                                  : Нет
Forced                                   : Нет
Аудио #2
Идентификатор                            : 3
Формат                                   : DTS
Формат/Информация                        : Digital Theater Systems
Идентификатор кодека                     : A_DTS
Продолжительность                        : 1 ч. 34 м.
Вид битрейта                             : Постоянный
Битрейт                                  : 1510 Кбит/сек
Каналы                                   : 6 каналов
Расположение каналов                     : Front: L C R, Side: L R, LFE
Частота                                  : 48,0 КГц
Битовая глубина                          : 24 бит
Метод сжатия                             : С потерями
Задержка видео                           : 11 мс.
Размер потока                            : 1016 Мбайт (8%)
Заголовок                                : DTS 5.1 @ 1536 kbps - Одноголосый, Ю. Живов
Язык                                     : Russian
Default                                  : Нет
Forced                                   : Нет
Аудио #3
Идентификатор                            : 4
Формат                                   : AC-3
Формат/Информация                        : Audio Coding 3
Расширение режима                        : CM (complete main)
Параметр Endianness формата              : Big
Идентификатор кодека                     : A_AC3
Продолжительность                        : 1 ч. 34 м.
Вид битрейта                             : Постоянный
Битрейт                                  : 192 Кбит/сек
Каналы                                   : 2 канала
Расположение каналов                     : Front: L R
Частота                                  : 48,0 КГц
Битовая глубина                          : 16 бит
Метод сжатия                             : С потерями
Размер потока                            : 129 Мбайт (1%)
Заголовок                                : AC3 2.0 @ 192 kbps - Многоголосый, ICTV
Язык                                     : Ukrainian
Default                                  : Нет
Forced                                   : Нет
Аудио #4
Идентификатор                            : 5
Формат                                   : DTS
Формат/Информация                        : Digital Theater Systems
Идентификатор кодека                     : A_DTS
Продолжительность                        : 1 ч. 34 м.
Вид битрейта                             : Постоянный
Битрейт                                  : 1510 Кбит/сек
Каналы                                   : 6 каналов
Расположение каналов                     : Front: L C R, Side: L R, LFE
Частота                                  : 48,0 КГц
Битовая глубина                          : 24 бит
Метод сжатия                             : С потерями
Задержка видео                           : 11 мс.
Размер потока                            : 1016 Мбайт (8%)
Заголовок                                : DTS 5.1 @ 1536 kbps
Язык                                     : English
Default                                  : Нет
Forced                                   : Нет
Текст #1
Идентификатор                            : 6
Формат                                   : UTF-8
Идентификатор кодека                     : S_TEXT/UTF8
Идентификатор кодека/Информация          : UTF-8 Plain Text
Язык                                     : Russian
Default                                  : Нет
Forced                                   : Нет
Текст #2
Идентификатор                            : 7
Формат                                   : UTF-8
Идентификатор кодека                     : S_TEXT/UTF8
Идентификатор кодека/Информация          : UTF-8 Plain Text
Язык                                     : English
Default                                  : Нет
Forced                                   : Нет

Скриншоты

     
Other forum [Profile] [PM]
Display posts from previous:    
Reply to topic

The time now is: Today 04:34

All times are GMT + 3 Hours



You cannot post new topics in this forum
You cannot reply to topics in this forum
You cannot edit your posts in this forum
You cannot delete your posts in this forum
You cannot vote in polls in this forum
You cannot attach files in this forum
You cannot download files in this forum