Today is a free download without charge Download

Красотка и бродяга / Ben Banks (2012,Брайс Кларк, драма, комедия) HDRip

Reply to topic
 
Author
Message

DeadMmau5 ®

Gender:

Longevity: 8 years 8 months

Posts: 155

Location: Поскот

Торрент-статистика

Post 26-Oct-2012 00:14

[Quote]

Красотка и бродяга / Ben Banks (2012) HDRip-- Русское название: Красотка и бродяга
Оригинальное название: Ben Banks
Год выпуска: 2012
Производство: США, Signal Films
Жанр: Драма, Комедия
Перевод: Многоголосый закадровый, профессиональный [НТВ+]
Субтитры: Отсутствуют
Дата мировой премьеры: 17 сентября 2012
Режиссер: Брайс Кларк
Продюсер: Джастин Лион, Ричард Беннетт, Джори Корди
Актеры: Бен Бэнкс, Джерри Бэнкс, Миша Бартон, Алекс Бе, Рональд Л. Браун--Описание фильма:
Он молодой парень без амбиций, который постоянно попадает в серии странных при(зло)ключений. Когда он влюбляется в прелестную девушку с таинственным прошлым, он отправляется в путешествие, в конце которого понимает, что повзрослеть — это совсем неплохо.- -Продолжительность: 01:25:27
Качество видео: HDRip
Видеокодек: Xvid
Битрейт видео: ~2087 Кбит/сек
Размер кадра: 720*400
Аудиокодек: AC-3, 2канала
Битрейт аудио: 192 kb/s

MediaInfo:

Код:
Общее
Полное имя                               : :\\Ben.banks.2012.P.HDRip.avi
Формат                                   : AVI
Формат/Информация                        : Audio Video Interleave
Размер файла                             : 1,37 Гбайт
Продолжительность                        : 1 ч. 25 м.
Общий поток                              : 2288 Кбит/сек
Программа кодирования                    : VirtualDubMod 1.5.10.2 (build 2540/release)
Библиотека кодирования                   : VirtualDubMod build 2540/release
Видео
Идентификатор                            : 0
Формат                                   : MPEG-4 Visual
Профиль формата                          : Advanced [email protected]
Параметр BVOP формата                    : 2
Параметр QPel формата                    : Нет
Параметр GMC формата                     : Без точки перехода
Параметр матрицы формата                 : Default (MPEG)
Режим смешивания                         : Сжатый битовый поток
Идентификатор кодека                     : XVID
Идентификатор кодека/Подсказка           : XviD
Продолжительность                        : 1 ч. 25 м.
Битрейт                                  : 2087 Кбит/сек
Ширина                                   : 720 пикселей
Высота                                   : 400 пикселей
Соотношение сторон                       : 16:9
Частота кадров                           : 23,976 кадра/сек
Цветовое пространство                    : YUV
Субдискретизация насыщенности            : 4:2:0
Битовая глубина                          : 8 бит
Тип развёртки                            : Прогрессивная
Метод сжатия                             : С потерями
Бит/(Пиксели*Кадры)                      : 0.302
Размер потока                            : 1,25 Гбайт (91%)
Библиотека кодирования                   : XviD 1.2.1 (UTC 2008-12-04)
Аудио
Идентификатор                            : 1
Формат                                   : AC-3
Формат/Информация                        : Audio Coding 3
Расширение режима                        : CM (complete main)
Параметр Endianness формата              : Big
Идентификатор кодека                     : 2000
Продолжительность                        : 1 ч. 25 м.
Вид битрейта                             : Постоянный
Битрейт                                  : 192 Кбит/сек
Каналы                                   : 2 канала
Расположение каналов                     : Front: L R
Частота                                  : 48,0 КГц
Битовая глубина                          : 16 бит
Метод сжатия                             : С потерями
Размер потока                            : 117 Мбайт (8%)
Выравнивание                             : Разделение по промежуткам
Продолжительность промежутка             : 42  мс. (1,00 видеокадр)
Время предзагрузки промежутка            : 500  мс.
Скриншоты:
         

_________________
Other forum [Profile] [PM]
Display posts from previous:    
Reply to topic

The time now is: Today 00:55

All times are GMT + 3 Hours



You cannot post new topics in this forum
You cannot reply to topics in this forum
You cannot edit your posts in this forum
You cannot delete your posts in this forum
You cannot vote in polls in this forum
You cannot attach files in this forum
You cannot download files in this forum