Сегодня идет свободное скачивание без начисления Download

Время ведьм / Season of the Witch (2010) DVDRip | лицензия

Ответить на тему
 
Автор
Сообщение

Varius ®

Пол:

Стаж: 8 лет 11 месяцев

Сообщений: 2658

Откуда: Hell

Торрент-статистика

Пост 15-Мар-2011 06:02

[Цитировать]

Время ведьм / Season of the Witch (2010) DVDRip- Русское название: Время ведьм
Оригинальное название: Season of the Witch
Год выпуска: 2010
Производство: США
Жанр: Фантастика, Боевик, Приключения
Язык: Русский
Перевод: Дублированный [лицензия]
Субтитры: Отсутствуют


Дата мировой премьеры: 4 января 2011
Дата российской премьеры: 6 января 2011, «Парадиз»
Дата выхода DVD релиза: 17 марта 2011, «CP-Digital»
Режиссер: Доминик Сена
Продюсер: Алекс Гартнер, Чарльз Ровен, Стив Александр
Актеры: Николас Кейдж, Рон Перлман, Стивен Кэмпбелл Мур, Стивен Грэм, Ульрих Томсен, Клер Фой, Роберт Шиэн, Кристофер Ли, Ребека Кеннеди, Эндрю Хефлер
Описание фильма:
XIV столетие. В Европе свирепствует чума. Виновницей смертоносной беды признают беззащитную девушку, подозревая ее в колдовстве. Умирающий кардинал просит рыцаря Бэймена доставить ведьму в далекое аббатство, где ее чары должны быть разрушены.
Семеро верховых и повозка с железной клеткой, в которой заточена обвиняемая, отправляются в опасное путешествие. Скоро рыцари осознают, их миловидная спутница действительно не человек, а исчадие ада.
Продолжительность: 01:30:50
Качество видео: DVDRip
Видеокодек: Xvid
Битрейт видео: ~1698 Кбит/сек
Размер кадра: 720x400 (16:9) / Частота кадров: 25,000 кадр/сек
Аудиокодек: AC3 5.1
Битрейт аудио: 448 Кбит/сек / 6 канала(ов) / 48,0 КГц
Сэмпл: Скачать

MediaInfo:

Общее
Полное имя : I:\bitTorrent\Vremya.vedm.2010.D.DVDRip.avi
Формат : AVI
Формат/Информация : Audio Video Interleave
Размер файла : 1,37 Гбайт
Продолжительность : 1 ч. 30 м.
Общий поток : 2156 Кбит/сек
Программа кодирования : VirtualDubMod 1.5.4.1 (build 2178/release)
Библиотека кодирования : VirtualDubMod build 2178/release
Видео
Идентификатор : 0
Формат : MPEG-4 Visual
Профиль формата : Advanced [email protected]
Параметр BVOP формата : 2
Параметр QPel формата : Нет
Параметр GMC формата : Без точки перехода
Параметр матрицы формата : Выборочная
Идентификатор кодека : XVID
Идентификатор кодека/Подсказка : XviD
Продолжительность : 1 ч. 30 м.
Битрейт : 1698 Кбит/сек
Ширина : 720 пикс.
Высота : 400 пикс.
Соотношение сторон : 16:9
Частота кадров : 25,000 кадр/сек
Цветовое пространство : YUV
Подвыборка цветности : 4:2:0
Битовая глубина : 8 бит
Тип развёртки : Прогрессивная
Метод сжатия : С потерями
Бит/(Пиксели*Кадры) : 0.236
Размер потока : 1,08 Гбайт (79%)
Библиотека кодирования : XviD 58
Аудио
Идентификатор : 1
Формат : AC-3
Формат/Информация : Audio Coding 3
Расширение режима : CM (complete main)
Идентификатор кодека : 2000
Продолжительность : 1 ч. 30 м.
Вид битрейта : Постоянный
Битрейт : 448 Кбит/сек
Канал(ы) : 6 канала(ов)
Расположение каналов : Front: L C R, Side: L R, LFE
Частота : 48,0 КГц
Битовая глубина : 16 бит
Метод сжатия : С потерями
Размер потока : 291 Мбайт (21%)
Выравнивание : Разделение по промежуткам
Продолжительность промежутка : 40 мс. (1,00 видеокадр)
Время предзагрузки промежутка : 500 ms
    [thumbnails][/thumbnails]   

_________________

Создавая "Новую папку", не считайте себя Создателем - это право Вам дано Админом


Вне форума [Профиль] [ЛС]

nikman

Пол:

Стаж: 7 лет

Сообщений: 8

Откуда: Регион-65

Торрент-статистика

Пост 28-Май-2012 14:58 (спустя 1 год 2 месяца)

[Цитировать]

Смотреть.Интересная кинуха !!!

_________________
Вне форума [Профиль] [ЛС]
Похожие темы
Форум Тема Автор Торрент Отв. Посл. сообщение
./templates/default/images/folder_dl.gif T Новинки (BD|HDTV|DVD) Время псов / The Hunter's Prayer (Джонатан Мостоу) [2017, Боевик, триллер, WEB-DL 1080p] Dybrik13
1 | 0

0 | 9363

7

2017-06-07 12:17
Dybrik13 Последнее
./templates/default/images/folder_dl.gif Техническая и научно-популярная литература Алан Бёрдик | Куда летит время. Увлекательное исследование о природе времени (2018) [FB2] }{@R0N
1 | 0

0 | 461

4

2018-10-21 18:12
}{@R0N Последнее
./templates/default/images/folder_dl.gif Психология, Тренинг, Саморазвитие Дэвид Хорсагер | Час тишины. И еще 34 инструмента, которые сохранят ваше время и энергию (2016) [PDF, EPUB, MOBI] }{@R0N
1 | 0

0 | 338

4

2019-01-13 18:01
}{@R0N Последнее
Показать сообщения:    
Ответить на тему

Текущее время: Сегодня 20:52

Часовой пояс: GMT + 3



Вы не можете начинать темы
Вы не можете отвечать на сообщения
Вы не можете редактировать свои сообщения
Вы не можете удалять свои сообщения
Вы не можете голосовать в опросах
Вы не можете прикреплять файлы к сообщениям
Вы не можете скачивать файлы