Today is a free download without charge Download

Пустоши / The Barrens (Даррен Линн Боусман / Darren Lynn Bousman) [2012 г., ужасы, HDRip] VO

Reply to topic
 
Author
Message

kiryandr ®

Gender:

Longevity: 9 years 7 months

Posts: 81

Торрент-статистика

Post 22-Oct-2012 00:51

[Quote]

-Пустоши / The Barrens-- Производство: США Empire Film & Entertainment Group, Genre Co., The
Год выпуска: 2012 г.
Жанр: ужасы
Продолжительность: 01:33:56
Мировая премьера: 28 сентября 2012
Перевод: Любительский (одноголосый, закадровый)
Режиссер: Даррен Линн Боусман / Darren Lynn Bousman-В ролях: Миа Киршнер, Стивен Мойер, Эрик Кнудсен, Демор Барнс, Дж. ЛаРоуз, Александра МакДональд, Чантелл Чунг, Питер ДаКуна, Макс Топплин, Дэвид Кили-Описание: Герой фильма взяв семью в поход и не предполагал, что простая вылазка в лес с палатками и рыбацкими принадлежностями выльется в ужасные последствия. Очень скоро он понимает, что его семью преследует знаменитый Дьявол из Джерси — монстр, по слухам обитающий в местечке Pine Barrens, что расположено на юге Нью Джерси.-Семпл КиноПоиск
Качество видео: HDRip
Формат видео: AVI
Видео кодек: XviD
Аудио кодек: AC3
Видео: 720x400, 1694 Кбит/сек, 23,976 кадр/сек
Аудио: AC3 / 6 ch, 384 Кбит/сек, 48,0 КГц
Cубтитры: отсутствуют

Media Info

Общее
Полное имя : Pustoshi.2012.L1.HDRip.avi
Формат : AVI
Формат/Информация : Audio Video Interleave
Размер файла : 1,37 Гбайт
Продолжительность : 1 ч. 33 м.
Общий поток : 2087 Кбит/сек
Программа кодирования : VirtualDubMod 1.5.10.2 (build 2540/release)
Библиотека кодирования : VirtualDubMod build 2540/release
Видео
Идентификатор : 0
Формат : MPEG-4 Visual
Профиль формата : Advanced [email protected]
Параметр BVOP формата : 1
Параметр QPel формата : Нет
Параметр GMC формата : Без точки перехода
Параметр матрицы формата : Default (H.263)
Идентификатор кодека : XVID
Идентификатор кодека/Подсказка : XviD
Продолжительность : 1 ч. 33 м.
Битрейт : 1694 Кбит/сек
Ширина : 720 пикс.
Высота : 400 пикс.
Соотношение сторон : 16:9
Частота кадров : 23,976 кадр/сек
Цветовое пространство : YUV
Подвыборка цветности : 4:2:0
Битовая глубина : 8 бит
Тип развёртки : Прогрессивная
Метод сжатия : С потерями
Бит/(Пиксели*Кадры) : 0.245
Размер потока : 1,11 Гбайт (81%)
Библиотека кодирования : XviD 1.2.1 (UTC 2008-12-04)
Аудио
Идентификатор : 1
Формат : AC-3
Формат/Информация : Audio Coding 3
Расширение режима : CM (complete main)
Идентификатор кодека : 2000
Продолжительность : 1 ч. 33 м.
Вид битрейта : Постоянный
Битрейт : 384 Кбит/сек
Каналы : 6 каналов
Расположение каналов : Front: L C R, Side: L R, LFE
Частота : 48,0 КГц
Битовая глубина : 16 бит
Метод сжатия : С потерями
Размер потока : 258 Мбайт (18%)
Выравнивание : Разделение по промежуткам
Продолжительность промежутка : 42 мс. (1,00 видеокадр)
Время предзагрузки промежутка : 500 ms

Скриншоты

       
Other forum [Profile] [PM]
Display posts from previous:    
Reply to topic

The time now is: Today 10:55

All times are GMT + 3 Hours



You cannot post new topics in this forum
You cannot reply to topics in this forum
You cannot edit your posts in this forum
You cannot delete your posts in this forum
You cannot vote in polls in this forum
You cannot attach files in this forum
You cannot download files in this forum