Today is a free download without charge Download

Белоснежка: Смертельное лето / Snow White: A Deadly Summer (Дэвид ДеКото / David DeCoteau) [2012 г., Ужасы, HDRip] VO

Reply to topic
 
Author
Message

kiryandr ®

Gender:

Longevity: 9 years 7 months

Posts: 81

Торрент-статистика

Post 22-Oct-2012 00:23

[Quote]

Белоснежка: Смертельное лето / Snow White: A Deadly Summer- Русское название: Белоснежка: Смертельное лето
Оригинальное название: Snow White: A Deadly Summer
Год выпуска: 2012
Производство: США
Жанр: Ужасы
Перевод: Любительский одноголосый
Субтитры: Отсутствуют
Дата мировой премьеры: 16 марта 2012
Режиссер: Дэвид ДеКото / David DeCoteau
Актеры: Шэнли Касвелл, Морин МакКормик, Эрик Робертс, Тим Эбелл, Канту Р.Дж., Чейз Беннетт, Челси Бернье, Камилль Креган, Эйлин Дитц, Аарон Джагер
Описание фильма:
Перед нами предстает современная вариация известной сказки о Белоснежке. Девушка по имени Сноу похищена при содействии злой мачехи и доставлена в лесной лагерь, где ее семеро коллег по заключению начинают умирать друг за другом. Сноу должна раскрыть секреты окружающего их страшного леса до того, как сама станет жертвой неизвестного.- -Продолжительность: 01:23:19
Качество видео: HDRip
Формат видео: AVI
Видео кодек: XviD
Аудио кодек: AC3
Видео: 720x400, 2092 Кбит/сек, 23,976 кадра/сек
Аудио: АС3, 2.0, 224 Кбит/сек, 48,0 КГц
Сэмпл: Скачать-

Media Info

Общее
Полное имя : Snow.White.a.Deadly.Summer.2012.HDRip.1400.avi
Формат : AVI
Формат/Информация : Audio Video Interleave
Размер файла : 1,35 Гбайт
Продолжительность : 1 ч. 23 м.
Общий поток : 2325 Кбит/сек
Программа кодирования : VirtualDubMod 1.5.10.3 | www.virtualdub-fr.org || (build 2550/release)
Библиотека кодирования : VirtualDubMod build 2550/release
Видео
Идентификатор : 0
Формат : MPEG-4 Visual
Профиль формата : Advanced [email protected]
Параметр BVOP формата : 2
Параметр QPel формата : Нет
Параметр GMC формата : Без точки перехода
Параметр матрицы формата : Default (H.263)
Идентификатор кодека : XVID
Идентификатор кодека/Подсказка : XviD
Продолжительность : 1 ч. 23 м.
Битрейт : 2092 Кбит/сек
Ширина : 720 пикселей
Высота : 400 пикселей
Соотношение сторон : 16:9
Частота кадров : 23,976 кадра/сек
Цветовое пространство : YUV
Субдискретизация насыщенности : 4:2:0
Битовая глубина : 8 бит
Тип развёртки : Прогрессивная
Метод сжатия : С потерями
Бит/(Пиксели*Кадры) : 0.303
Размер потока : 1,22 Гбайт (90%)
Библиотека кодирования : XviD 1.2.1 (UTC 2008-12-04)
Аудио
Идентификатор : 1
Формат : AC-3
Формат/Информация : Audio Coding 3
Расширение режима : CM (complete main)
Параметр Endianness формата : Big
Идентификатор кодека : 2000
Продолжительность : 1 ч. 23 м.
Вид битрейта : Постоянный
Битрейт : 224 Кбит/сек
Каналы : 2 канала
Расположение каналов : Front: L R
Частота : 48,0 КГц
Битовая глубина : 16 бит
Метод сжатия : С потерями
Размер потока : 133 Мбайт (10%)
Выравнивание : Разделение по промежуткам
Продолжительность промежутка : 42 мс. (1,00 видеокадр)
Время предзагрузки промежутка : 500 мс.
-Cкриншоты из фильма:
         
-Приятного просмотра
и не забываем говорить СПАСИБО...
-
Other forum [Profile] [PM]
Display posts from previous:    
Reply to topic

The time now is: Today 19:56

All times are GMT + 3 Hours



You cannot post new topics in this forum
You cannot reply to topics in this forum
You cannot edit your posts in this forum
You cannot delete your posts in this forum
You cannot vote in polls in this forum
You cannot attach files in this forum
You cannot download files in this forum