Today is a free download without charge Download

Шесть пуль / 6 Bullets (Эрни Барбараш) [2012, Боевик, Триллер, Криминал 1080p, BDRemux]

Reply to topic
 
Author
Message

Meshanik ®

Gender:

Longevity: 8 years 10 months

Posts: 3866

Location: Los Angeles

Торрент-статистика

Post 21-Oct-2012 17:20

[Quote]

Шесть пуль / 6 Bullets-
Русское название: Шесть пуль
Оригинальное название: 6 Bullets
Год выпуска: 2012
Производство: США / Motion Picture Corporation of America (MPCA), Rodin Entertainment
Жанр: Боевик, Триллер, Криминал
Продолжительность: 01:54:47
Перевод: Двуголосый закадровый, любительский [den904 и DeadSno]
Язык субтитров: Английский-Дата мировой премьеры: 11 сентября 2012
Дата российской премьеры: Неизвестно
Режиссер: Эрни Барбараш
В ролях: Жан-Клод Ван Дамм, Джо Флениган, Бьянка Бри, Анна-Луиза Плауман, Кристофер Ван Варенберг-Описание фильма:
Фильм расскажет о бывшем наёмнике, занимавшимся розыском пропавших детей, которому предстоит отыскать дочь бывшего бойца смешанных единоборств.-
Сэмпл:-Качество видео: BDRemux
Видеокодек: MPEG-4 AVC/H.264
Битрейт видео: ~16980 kbps
Размер кадра: 1920 х 1080
Аудио 1: Русский, AC3 5.1, 448 kbps, 48 kHz
Аудио 2: Английский, DTS-HD MA 5.1, 2224 kbps, 48 kHz
-

BV

-

MediaInfo:

Общее
Уникальный идентификатор : 189106373104728019443802400690589644553 (0x8E44900ABA32522F95046582CA0BB709)
Полное имя : D:\Films\Six_Bullets.2012.1080p.BDRemu.mkv
Формат : Matroska
Версия формата : Version 2
Размер файла : 15,8 Гбайт
Продолжительность : 1 ч. 54 м.
Режим общего битрейта : Переменный
Общий поток : 19,7 Мбит/сек
Название фильма : Six Bullets
Дата кодирования : UTC 2012-10-16 08:03:35
Программа кодирования : mkvmerge v5.2.0 ('I can't explain') built on Dec 18 2011 18:12:03
Библиотека кодирования : libebml v1.2.3 + libmatroska v1.3.0
Видео
Идентификатор : 1
Формат : AVC
Формат/Информация : Advanced Video Codec
Профиль формата : [url=mailto:[email protected]][email protected][/url]
Параметр CABAC формата : Да
Параметр ReFrames формата : 4 кадра
Идентификатор кодека : V_MPEG4/ISO/AVC
Продолжительность : 1 ч. 54 м.
Вид битрейта : Переменный
Битрейт : 16,8 Мбит/сек
Максимальный битрейт : 35,0 Мбит/сек
Ширина : 1920 пикселей
Высота : 1080 пикселей
Соотношение сторон : 16:9
Частота кадров : 23,976 кадра/сек
Цветовое пространство : YUV
Субдискретизация насыщенности : 4:2:0
Битовая глубина : 8 бит
Тип развёртки : Прогрессивная
Бит/(Пиксели*Кадры) : 0.337
Размер потока : 13,4 Гбайт (85%)
Язык : English
Default : Да
Forced : Нет
Аудио #1
Идентификатор : 2
Формат : AC-3
Формат/Информация : Audio Coding 3
Расширение режима : CM (complete main)
Параметр Endianness формата : Big
Идентификатор кодека : A_AC3
Продолжительность : 1 ч. 54 м.
Вид битрейта : Постоянный
Битрейт : 448 Кбит/сек
Каналы : 6 каналов
Расположение каналов : Front: L C R, Side: L R, LFE
Частота : 48,0 КГц
Битовая глубина : 16 бит
Метод сжатия : С потерями
Размер потока : 368 Мбайт (2%)
Заголовок : DVO [den904 и DeadSno]
Язык : Russian
Default : Да
Forced : Нет
Аудио #2
Идентификатор : 3
Формат : DTS
Формат/Информация : Digital Theater Systems
Профиль формата : MA / Core
Идентификатор кодека : A_DTS
Продолжительность : 1 ч. 54 м.
Вид битрейта : Переменный
Битрейт : 2062 Кбит/сек / 1510 Кбит/сек
Каналы : 6 каналов
Расположение каналов : Front: L C R, Side: L R, LFE
Частота : 48,0 КГц
Битовая глубина : 16 бит
Метод сжатия : Без потерь / Lossy
Заголовок : Lossless
Язык : English
Default : Нет
Forced : Нет
Текст
Идентификатор : 4
Формат : UTF-8
Идентификатор кодека : S_TEXT/UTF8
Идентификатор кодека/Информация : UTF-8 Plain Text
Язык : English
Default : Нет
Forced : Нет
Меню
00:00:00.000 : en:Chapter 00
00:10:50.566 : en:Chapter 01
00:18:49.753 : en:Chapter 02
00:28:00.553 : en:Chapter 03
00:35:29.502 : en:Chapter 04
00:44:44.264 : en:Chapter 05
00:57:33.074 : en:Chapter 06
01:07:34.508 : en:Chapter 07
01:16:18.699 : en:Chapter 08
01:27:09.265 : en:Chapter 09
01:35:15.543 : en:Chapter 10
01:47:03.542 : en:Chapter 11
Скриншоты:        
       
Other forum [Profile] [PM]
Display posts from previous:    
Reply to topic

The time now is: Today 06:04

All times are GMT + 3 Hours



You cannot post new topics in this forum
You cannot reply to topics in this forum
You cannot edit your posts in this forum
You cannot delete your posts in this forum
You cannot vote in polls in this forum
You cannot attach files in this forum
You cannot download files in this forum