Today is a free download without charge Download

Новый Человек-паук / The Amazing Spider-Man (Марк Уэбб) [2012 г., Боевик,Фантастика,Приключения, DVD9]

Reply to topic
 
Author
Message

Meshanik ®

Gender:

Longevity: 8 years 10 months

Posts: 3866

Location: Los Angeles

Торрент-статистика

Post 21-Oct-2012 07:52

[Quote]

Новый Человек-паук / The Amazing Spider-Man«Новый герой, новая история, новая любовь»-- Русское название: Новый Человек-паук
Оригинальное название: The Amazing Spider-Man
Год выпуска: 2012
Страна: Columbia Pictures / Laura Ziskin Productions [США]
Жанр: Фантастика, боевик, приключения
Продолжительность: 02:10:43
Перевод: Дублированный [лицензия]
Субтитры: Вшитые отключаемые
Язык субтитров: Русский, английский, арабский, эстонский, иврит, греческий, исландский, латышский, литовский--Режиссер: Марк Уэбб
Продюсер: Ави Арад, Мэттью Толмак, Лора Зискин
В ролях: Эндрю Гарфилд, Эмма Стоун, Рис Иванс, Дэнис Лири, Мартин Шин, Салли Филд, Эмбет Дэвидц, Кэмпбелл Скотт, Ирфан Кхан, Крис Зилка--Описание фильма:
В детстве Питер Паркер был оставлен своими родителями, и поэтому воспитывался дядей и тётей. Шли годы, Питер был обычным примерным школьником, подвергался нападкам хулиганов и был влюблён в свою одноклассницу Гвен Стэйси, которая сама втайне отвечала ему взаимностью. Но после укуса генетически изменённого паука, Питер получает невероятные сверхспособности и его жизнь меняется навсегда.
Дата мировой премьеры: 13 июня 2012
Дата российской премьеры: 5 июля 2012, «WDSSPR»
Дата выхода DVD релиза: 30 октября 2012, «Columbia/Sony»
Дата выхода Blu-Ray релиза: 30 октября 2012, «Columbia/Sony»-- --Качество видео: DVD9
Видео: MPEG-2, [email protected] (PAL 16:9), ~4500 kbps, Bit/Pixel: 0.443
Аудио 1: AC3 5.1, 384 kbps [Английский - оригинал]
Аудио 2: AC3 5.1, 384 kbps [Казахский - дублированный]
Аудио 3: AC3 5.1, 384 kbps [Русский - дублированный]
Аудио 4: AC3 5.1, 384 kbps [Украинский - дублированный]
Аудио 5: AC3 2.0, 192 kbps [Английский - бонусы]
--

Дополнительные материалы...

  • Комментарий Марка Уэбба, Ави Арада и Мэтта Толмака
  • Удаленные сцены
  • Репетиции трюков
  • Архивы оскорп галерея
  • Трейлеры
-

DVDInfo…

Title: The.Amazing.Spider-Man.(2012).DVD9
Size: 6.82 Gb ( 7 146 870 KBytes ) - DVD-9
Enabled regions: 1, 2, 3, 4, 5, 6, 7, 8
VTS_01 :
Play Length: 02:10:43
Video: PAL 16:9 (720x576) VBR, Auto Pan&Scan
Audio:
English (Dolby AC3, 6 ch)
Kazakh (Dolby AC3, 6 ch)
Russian (Dolby AC3, 6 ch)
Ukrainian (Dolby AC3, 6 ch)
English (Dolby AC3, 2 ch)
Subtitles:
English
Arabic
Estonian
Greek
Hebrew
Islenska
Latvian
Lithuanian
Russian
English
Greek
Russian
VTS_02 :
Play Length: 00:16:23+00:03:53+00:01:52+00:01:05+00:00:40+00:01:49+00:00:52+00:01:28+00:00:57+00:00:58+00:03:23+00:00:49
Video: PAL 16:9 (720x576) VBR, Auto Pan&Scan
Audio:
English (Dolby AC3, 2 ch)
Subtitles:
English
Greek
Russian
VTS_03 :
Play Length:
Video: PAL 16:9 (720x576) VBR, Auto Pan&Scan
VTS_04 :
Play Length: 00:11:32+00:01:31+00:01:33+00:02:11+00:01:49+00:00:45+00:02:18+00:00:55+00:01:26
Video: PAL 16:9 (720x576) VBR, Auto Pan&Scan
Audio:
English (Dolby AC3, 2 ch)
Subtitles:
Greek
Russian
VTS_05 :
Play Length:
Video: PAL 16:9 (720x576) VBR, Auto Letterboxed
Subtitles:
Not specified
VTS_06 :
Play Length:
Video: PAL 16:9 (720x576) VBR, Auto Letterboxed
Subtitles:
Not specified
VTS_07 :
Play Length:
Video: PAL 16:9 (720x576) VBR, Auto Letterboxed
Subtitles:
Not specified
VTS_08 :
Play Length: 00:10:18
Video: PAL 16:9 (720x576) VBR, Auto Pan&Scan
Audio:
English (Dolby AC3, 6 ch)
VTS_09 :
Play Length: 00:00:01
Video: PAL 16:9 (720x576) VBR, Auto Pan&Scan
VTS_10 :
Play Length: 00:00:01
Video: PAL 4:3 (720x576) VBR
Subtitles:
Not specified
Not specified
Not specified
VTS_11 :
Play Length: 00:00:01
Video: PAL 4:3 (720x576) VBR
Subtitles:
Not specified
Not specified
Not specified
VTS_12 :
Play Length:
Video: PAL 16:9 (720x576) VBR, Auto Pan&Scan
VTS_13 :
Play Length:
Video: PAL 16:9 (720x576) VBR, Auto Pan&Scan
VTS_14 :
Play Length: 00:00:10+00:00:12+00:00:08+00:00:09+00:00:05
Video: PAL 16:9 (720x576) VBR, Auto Pan&Scan
Audio:
Not specified (Dolby AC3, 2 ch)
VTS_15 :
Play Length:
Video: PAL 4:3 (720x576) VBR
VTS_16 :
Play Length: 00:00:05
Video: PAL 16:9 (720x576) VBR, Auto Pan&Scan
Audio:
Not specified (Dolby AC3, 2 ch)
VTS_17 :
Play Length:
Video: PAL 16:9 (720x576) VBR, Auto Pan&Scan
VTS_18 :
Play Length:
Video: PAL 16:9 (720x576) VBR, Auto Letterboxed
-

MediaInfo...

Полное имя : D:\The.Amazing.Spider-Man.(2012).DVD9\VIDEO_TS\VTS_01_5.VOB
Формат : MPEG-PS
Размер файла : 1024 Мбайт
Продолжительность : 22 м.
Режим общего битрейта : Переменный
Общий поток : 6455 Кбит/сек
Видео
Идентификатор : 224 (0xE0)
Формат : MPEG Video
Версия формата : Version 2
Профиль формата : [email protected]
Параметр BVOP формата : Да
Параметр матрицы формата : Выборочная
Параметр GOP формата : M=3, N=12
Продолжительность : 22 м.
Вид битрейта : Переменный
Битрейт : 4598 Кбит/сек
Максимальный битрейт : 9800 Кбит/сек
Ширина : 720 пикселей
Высота : 576 пикселей
Соотношение сторон : 16:9
Частота кадров : 25,000 кадров/сек
Стандарт вещания : PAL
Цветовое пространство : YUV
Субдискретизация насыщенности : 4:2:0
Битовая глубина : 8 бит
Тип развёртки : Прогрессивная
Порядок развёртки : Верхнее поле первое
Метод сжатия : С потерями
Бит/(Пиксели*Кадры) : 0.443
Размер потока : 729 Мбайт (71%)
Аудио #1
Идентификатор : 189 (0xBD)-128 (0x80)
Формат : AC-3
Формат/Информация : Audio Coding 3
Расширение режима : CM (complete main)
Параметр Endianness формата : Big
Режим смешивания : DVD-Video
Продолжительность : 22 м.
Вид битрейта : Постоянный
Битрейт : 384 Кбит/сек
Каналы : 6 каналов
Расположение каналов : Front: L C R, Side: L R, LFE
Частота : 48,0 КГц
Битовая глубина : 16 бит
Метод сжатия : С потерями
Задержка видео : -552 мс.
Размер потока : 60,9 Мбайт (6%)
Аудио #2
Идентификатор : 189 (0xBD)-129 (0x81)
Формат : AC-3
Формат/Информация : Audio Coding 3
Расширение режима : CM (complete main)
Параметр Endianness формата : Big
Режим смешивания : DVD-Video
Продолжительность : 22 м.
Вид битрейта : Постоянный
Битрейт : 384 Кбит/сек
Каналы : 6 каналов
Расположение каналов : Front: L C R, Side: L R, LFE
Частота : 48,0 КГц
Битовая глубина : 16 бит
Метод сжатия : С потерями
Задержка видео : -552 мс.
Размер потока : 60,9 Мбайт (6%)
Аудио #3
Идентификатор : 189 (0xBD)-130 (0x82)
Формат : AC-3
Формат/Информация : Audio Coding 3
Расширение режима : CM (complete main)
Параметр Endianness формата : Big
Режим смешивания : DVD-Video
Продолжительность : 22 м.
Вид битрейта : Постоянный
Битрейт : 384 Кбит/сек
Каналы : 6 каналов
Расположение каналов : Front: L C R, Side: L R, LFE
Частота : 48,0 КГц
Битовая глубина : 16 бит
Метод сжатия : С потерями
Задержка видео : -552 мс.
Размер потока : 60,9 Мбайт (6%)
Аудио #4
Идентификатор : 189 (0xBD)-131 (0x83)
Формат : AC-3
Формат/Информация : Audio Coding 3
Расширение режима : CM (complete main)
Параметр Endianness формата : Big
Режим смешивания : DVD-Video
Продолжительность : 22 м.
Вид битрейта : Постоянный
Битрейт : 384 Кбит/сек
Каналы : 6 каналов
Расположение каналов : Front: L C R, Side: L R, LFE
Частота : 48,0 КГц
Битовая глубина : 16 бит
Метод сжатия : С потерями
Задержка видео : -552 мс.
Размер потока : 60,9 Мбайт (6%)
Аудио #5
Идентификатор : 189 (0xBD)-132 (0x84)
Формат : AC-3
Формат/Информация : Audio Coding 3
Профиль формата : Dolby Digital
Расширение режима : CM (complete main)
Параметр Endianness формата : Big
Режим смешивания : DVD-Video
Продолжительность : 22 м.
Вид битрейта : Постоянный
Битрейт : 192 Кбит/сек
Каналы : 2 канала
Расположение каналов : Front: L R
Частота : 48,0 КГц
Битовая глубина : 16 бит
Метод сжатия : С потерями
Задержка видео : -488 мс.
Размер потока : 30,5 Мбайт (3%)
Текст #1
Идентификатор : 189 (0xBD)-41 (0x29)
Формат : RLE
Формат/Информация : Run-length encoding
Режим смешивания : DVD-Video
Продолжительность : 22 м.
Задержка видео : 3 с. 200 мс.
Текст #2
Идентификатор : 189 (0xBD)-42 (0x2A)
Формат : RLE
Формат/Информация : Run-length encoding
Режим смешивания : DVD-Video
Продолжительность : 22 м.
Задержка видео : 3 с. 200 мс.
Текст #3
Идентификатор : 189 (0xBD)-43 (0x2B)
Формат : RLE
Формат/Информация : Run-length encoding
Режим смешивания : DVD-Video
Меню
-

Скриншоты меню...

         
-

Скриншоты

       
       
-
Other forum [Profile] [PM]
Similar theme
Forum Topic Author Torrent Replies Last Post
./templates/default/images/folder_dl.gif Развлекательные телепередачи и шоу, приколы и юмор Отличный Новый год на Пятом. Российский музыкальный хит-парад интернета [эфир 01.01.2013] (2013) TVRip Omen
0 | 1

0 | 860

0

2013-01-28 04:32
Omen Latest
./templates/default/images/folder_dl.gif Обучающее видео Clint Arthur | Новый Современный Секс / New Sex Now (2004) DVDRip Clavik
1 | 0

0 | 1159

3

2019-11-30 10:43
Clavik Latest
./templates/default/images/folder_dl.gif Разножанровые коллекции книг и библиотеки Библиотека Либрусек (lib.rus.ec) + MyHomeLib [FB2] (Новый формат. Официальная версия) (Дополняемая) DED
1 | 0

0 | 1179

1

2020-09-05 20:46
DED Latest
Display posts from previous:    
Reply to topic

The time now is: Today 01:35

All times are GMT + 3 Hours



You cannot post new topics in this forum
You cannot reply to topics in this forum
You cannot edit your posts in this forum
You cannot delete your posts in this forum
You cannot vote in polls in this forum
You cannot attach files in this forum
You cannot download files in this forum