Сегодня идет свободное скачивание без начисления Download

Всё путём / Everybody's Fine (Кирк Джонс) [2009 г., драма, BDRip]

Ответить на тему
 
Автор
Сообщение

Delia ®

Пол:

Стаж: 8 лет 11 месяцев

Сообщений: 1822

Торрент-статистика

Пост 13-Мар-2011 18:33

[Цитировать]

Всё путём Everybody's Fine Год выпуска: 2009
Страна: США, Италия
Жанр: драма
Продолжительность: 99 мин.
Перевод: Профессиональный (полное дублирование)
Режиссер: Кирк Джонс
Продюссер: Витторио Чекки Гори, Тед Филд, Глайнис Мюррэй
Сценарий: Кирк Джонс, Массимо Де Рита, Тонино Гуэрра
Бюджет: $21 000 000
Премьера в мире: 3 ноября 2009
В ролях: Роберт Де Ниро, Дрю Бэрримор, Кейт Бекинсейл, Сэм Рокуэлл, Люсиан Майсел, Дамиан Янг, Джеймс Фрейн, Мелисса Лео, Кэтрин Монниг, Брендан Секстон III
Описание: Овдовевший пенсионер осознает, что долгие годы именно его жена связывала воедино их большое семейство. Чтобы самому поближе узнать, как живут его дети, он отправляется навестить их — и во время импровизированного путешествия по домам своих отпрысков открывает для себя много неожиданного...
Качество: BDRip
Формат: MKV
Видео кодек: H.264
Аудио кодек: AC3
Видео: English, 2350 Кбит/сек, 1280*544 (2,35:1), в 23,976 кадр/сек, AVC ([email protected])
Аудио: Russian, 384 Кбит/сек, 48,0 КГц, 16 бит, 6 канала(ов), AC-3|дубляж
Аудио:English, 384 Кбит/сек, 48,0 КГц, 16 бит, 6 канала(ов), AC-3|оригинал
Субтитры:Russian, VobSub :Ukrainian, VobSub :English, VobSub

Media Info:

Общее
Уникальный идентификатор : 183010609175205578692845153566558425307 (0x89AE8FAD1AA14C27836ACE14C7EE90DB)
Полное имя : E:\торрент\Everybody's Fine ( 2009) BDRip 720p .mkv
Формат : Matroska
Размер файла : 2,19 Гбайт
Продолжительность : 1 ч. 40 м.
Общий поток : 3125 Кбит/сек
Дата кодирования : UTC 2011-03-13 14:48:23
Программа кодирования : mkvmerge v4.6.0 ('Still Crazy After All These Years') built on Mar 10 2011 02:50:32
Библиотека кодирования : libebml v1.2.0 + libmatroska v1.1.0
Видео
Идентификатор : 1
Формат : AVC
Формат/Информация : Advanced Video Codec
Профиль формата : [email protected]
Параметр CABAC формата : Да
Параметр ReFrames формата : 10 кадры
Идентификатор кодека : V_MPEG4/ISO/AVC
Продолжительность : 1 ч. 40 м.
Битрейт : 2350 Кбит/сек
Ширина : 1280 пикс.
Высота : 544 пикс.
Соотношение сторон : 2,35:1
Частота кадров : 23,976 кадр/сек
Цветовое пространство : YUV
Подвыборка цветности : 4:2:0
Битовая глубина : 8 бит
Тип развёртки : Прогрессивная
Бит/(Пиксели*Кадры) : 0.141
Размер потока : 1,61 Гбайт (73%)
Библиотека кодирования : x264 core 114 r1913 5fd3dce
Настройки программы : cabac=1 / ref=10 / deblock=1:-1:-1 / analyse=0x3:0x133 / me=umh / subme=7 / psy=1 / psy_rd=1.00:0.15 / mixed_ref=1 / me_range=32 / chroma_me=1 / trellis=2 / 8x8dct=1 / cqm=0 / deadzone=21,11 / fast_pskip=0 / chroma_qp_offset=-3 / threads=6 / sliced_threads=0 / nr=0 / decimate=1 / interlaced=0 / constrained_intra=0 / bframes=6 / b_pyramid=2 / b_adapt=1 / b_bias=0 / direct=1 / weightb=1 / open_gop=0 / weightp=2 / keyint=250 / keyint_min=24 / scenecut=40 / intra_refresh=0 / rc_lookahead=40 / rc=2pass / mbtree=1 / bitrate=2350 / ratetol=1.0 / qcomp=0.60 / qpmin=5 / qpmax=51 / qpstep=4 / cplxblur=20.0 / qblur=0.5 / ip_ratio=1.40 / aq=1:1.00
Язык : English
Аудио #1
Идентификатор : 2
Формат : AC-3
Формат/Информация : Audio Coding 3
Расширение режима : CM (complete main)
Идентификатор кодека : A_AC3
Продолжительность : 1 ч. 40 м.
Вид битрейта : Постоянный
Битрейт : 384 Кбит/сек
Канал(ы) : 6 канала(ов)
Расположение каналов : Front: L C R, Side: L R, LFE
Частота : 48,0 КГц
Битовая глубина : 16 бит
Метод сжатия : С потерями
Размер потока : 276 Мбайт (12%)
Язык : Russian
Аудио #2
Идентификатор : 3
Формат : AC-3
Формат/Информация : Audio Coding 3
Расширение режима : CM (complete main)
Идентификатор кодека : A_AC3
Продолжительность : 1 ч. 40 м.
Вид битрейта : Постоянный
Битрейт : 384 Кбит/сек
Канал(ы) : 6 канала(ов)
Расположение каналов : Front: L C R, Side: L R, LFE
Частота : 48,0 КГц
Битовая глубина : 16 бит
Метод сжатия : С потерями
Размер потока : 276 Мбайт (12%)
Язык : English
Текст #1
Идентификатор : 4
Формат : VobSub
Режим смешивания : zlib
Идентификатор кодека : S_VOBSUB
Идентификатор кодека/Информация : The same subtitle format used on DVDs
Язык : Russian
Текст #2
Идентификатор : 5
Формат : VobSub
Режим смешивания : zlib
Идентификатор кодека : S_VOBSUB
Идентификатор кодека/Информация : The same subtitle format used on DVDs
Язык : Ukrainian
Текст #3
Идентификатор : 6
Формат : VobSub
Режим смешивания : zlib
Идентификатор кодека : S_VOBSUB
Идентификатор кодека/Информация : The same subtitle format used on DVDs
Язык : English
Меню
00:00:00.000 : en:00:00:00.000
00:10:15.281 : en:00:10:15.281
00:13:33.145 : en:00:13:33.145
00:20:47.371 : en:00:20:47.371
00:25:42.707 : en:00:25:42.707
00:32:38.748 : en:00:32:38.748
00:35:59.365 : en:00:35:59.365
00:39:58.521 : en:00:39:58.521
00:52:02.285 : en:00:52:02.285
00:58:59.911 : en:00:58:59.911
01:02:54.937 : en:01:02:54.937
01:10:15.002 : en:01:10:15.002
01:18:57.524 : en:01:18:57.524
01:26:08.246 : en:01:26:08.246
01:31:29.901 : en:01:31:29.901
01:35:34.186 : en:01:35:34.186

Скриншоты

        

_________________
Человек – это канат, натянутый между животным и сверхчеловеком, – канат над пропастью.
В человеке ценно то, что он мост, а не цель. Фридрих Ницше


Последний раз редактировалось: Delia (2011-08-25 23:38), всего редактировалось 1 раз
Вне форума [Профиль] [ЛС]
Показать сообщения:    
Ответить на тему

Текущее время: Сегодня 20:31

Часовой пояс: GMT + 3



Вы не можете начинать темы
Вы не можете отвечать на сообщения
Вы не можете редактировать свои сообщения
Вы не можете удалять свои сообщения
Вы не можете голосовать в опросах
Вы не можете прикреплять файлы к сообщениям
Вы не можете скачивать файлы