Today is a free download without charge Download

Троя / Troy [Director's Cut] (Вольфганг Петерсен / Wolfgang Petersen) [2004 г., боевик, драма, мелодрама, история, BDRip-AVC]

Reply to topic
 
Author
Message

Meshanik ®

Gender:

Longevity: 9 years

Posts: 3866

Location: Los Angeles

Торрент-статистика

Post 21-Oct-2012 05:36

[Quote]

-Троя / Troy
«For Troy»
-
Год выпуска: 2004 г.
Производство: США, Мальта, Великобритания
Жанр: боевик, драма, мелодрама, история
Продолжительность: 03:16:03
Перевод: Профессиональный (многоголосый, закадровый)
Оригинальный аудиопоток: Английский
Субтитры: Русские, английские-Режиссер: Вольфганг Петерсен / Wolfgang Petersen
В ролях: Брэд Питт, Эрик Бана, Орландо Блум, Брайан Кокс, Дайан Крюгер, Брендан Глисон, Шон Бин, Джули Кристи, Питер О’Тул, Роуз Бирн
Описание: 1193 год до нашей эры. Парис украл прекрасную Елену, жену царя Спарты Менелая. За честь Менелая вступается его брат — царь Агамемнон. Его армия под предводительством Ахиллеса подошла к Трое и взяла город в кровавую осаду, длившуюся долгих десять лет… Два мира будут воевать за честь и власть. Тысячи умрут за славу. И за любовь нация сгорит дотла.- -Качество видео: BDRip-AVC
Формат видео: MKV
Видео кодек: H.264
Аудио кодек: AC3
Видео: 1008x416, 23.976fps, 1678 Kbps, 0.167 bit/pixel
Аудио1: 48.0 KHz, 6 ch, 224 Kbps (Rus)
Аудио2: 48.0 KHz, 6 ch, 224 Kbps (Eng)-

Media Info

General
Unique ID : 208583872817952452542184660415771826285 (0x9CEBCAEB9C5CBA7DB9EEFA240E5FD86D)
Complete name : H:\JRG\Troy.Director's.Cut.2004.H264.BDRip-AVC.JRG.mkv
Format : Matroska
Format version : Version 2
File size : 2.91 GiB
Duration : 3h 16mn
Overall bit rate : 2 128 Kbps
Movie name : Troy (2004) - The Jolly Roger by /*spam*/ [zyyx]
Encoded date : UTC 2012-10-20 18:56:44
Writing application : mkvmerge v4.9.1 ('Ich will') сборка от Aug 10 2011 09:31:20
Writing library : libebml v1.2.1 + libmatroska v1.2.0
Video
ID : 1
Format : AVC
Format/Info : Advanced Video Codec
Format profile : [url=mailto:[email protected]][email protected][/url]
Format settings, CABAC : Yes
Format settings, ReFrames : 12 frames
Codec ID : V_MPEG4/ISO/AVC
Duration : 3h 16mn
Bit rate : 1 678 Kbps
Width : 1 008 pixels
Height : 416 pixels
Display aspect ratio : 2.40:1
Frame rate : 23.976 fps
Color space : YUV
Chroma subsampling : 4:2:0
Bit depth : 8 bits
Scan type : Progressive
Bits/(Pixel*Frame) : 0.167
Stream size : 2.24 GiB (77%)
Writing library : x264 core 116 r2074 2641b9e
Encoding settings : cabac=1 / ref=12 / deblock=1:-1:-1 / analyse=0x3:0x133 / me=umh / subme=11 / psy=1 / psy_rd=1.00:0.10 / mixed_ref=1 / me_range=48 / chroma_me=1 / trellis=2 / 8x8dct=1 / cqm=0 / deadzone=21,11 / fast_pskip=0 / chroma_qp_offset=-3 / threads=12 / sliced_threads=0 / nr=0 / decimate=1 / interlaced=0 / bluray_compat=0 / constrained_intra=0 / bframes=6 / b_pyramid=2 / b_adapt=2 / b_bias=0 / direct=3 / weightb=1 / open_gop=0 / weightp=2 / keyint=250 / keyint_min=23 / scenecut=40 / intra_refresh=0 / rc_lookahead=50 / rc=2pass / mbtree=1 / bitrate=1678 / ratetol=1.0 / qcomp=0.60 / qpmin=0 / qpmax=69 / qpstep=4 / cplxblur=20.0 / qblur=0.5 / ip_ratio=1.40 / aq=1:1.00
Language : English
Default : Yes
Forced : No
Audio #1
ID : 2
Format : AC-3
Format/Info : Audio Coding 3
Mode extension : CM (complete main)
Format settings, Endianness : Big
Codec ID : A_AC3
Duration : 3h 16mn
Bit rate mode : Constant
Bit rate : 224 Kbps
Channel(s) : 6 channels
Channel positions : Front: L C R, Side: L R, LFE
Sampling rate : 48.0 KHz
Bit depth : 16 bits
Compression mode : Lossy
Stream size : 314 MiB (11%)
Language : Russian
Default : Yes
Forced : No
Audio #2
ID : 3
Format : AC-3
Format/Info : Audio Coding 3
Mode extension : CM (complete main)
Format settings, Endianness : Big
Codec ID : A_AC3
Duration : 3h 16mn
Bit rate mode : Constant
Bit rate : 224 Kbps
Channel(s) : 6 channels
Channel positions : Front: L C R, Side: L R, LFE
Sampling rate : 48.0 KHz
Bit depth : 16 bits
Compression mode : Lossy
Stream size : 314 MiB (11%)
Language : English
Default : No
Forced : No
Text #1
ID : 4
Format : UTF-8
Codec ID : S_TEXT/UTF8
Codec ID/Info : UTF-8 Plain Text
Language : Russian
Default : No
Forced : No
Text #2
ID : 5
Format : UTF-8
Codec ID : S_TEXT/UTF8
Codec ID/Info : UTF-8 Plain Text
Language : English
Default : No
Forced : No

Скриншоты

           
           
           
 
Other forum [Profile] [PM]
Display posts from previous:    
Reply to topic

The time now is: Today 00:33

All times are GMT + 3 Hours



You cannot post new topics in this forum
You cannot reply to topics in this forum
You cannot edit your posts in this forum
You cannot delete your posts in this forum
You cannot vote in polls in this forum
You cannot attach files in this forum
You cannot download files in this forum