Today is a free download without charge Download

Джейсон Борн: Трилогия / The Bourne: Trilogy (2002, 2004, 2007) [1080p] BDRemux

Reply to topic
 
Author
Message

Omen ®

Longevity: 8 years 11 months

Posts: 181086

Торрент-статистика

Post 20-Oct-2012 20:50

[Quote]

Джейсон Борн: Трилогия / The Bourne: Trilogy (2002, 2004, 2007) [1080p] BDRemux--

Название: Джейсон Борн. Трилогия
Оригинальное название: The Bourne Trilogy
Год выхода: 2002/2004/2007
Жанр: Боевик, детектив, триллер
Режиссер: Даг Лайман, Пол Гринграсс
Производство: США, Германия, Чехия
Продолжительность: 01:58:37 | 01:48:33 | 01:55:20
--Идентификация Борна / The Bourne Identity (2002) BDRemux
- Русское название: Идентификация Борна
Оригинальное название: The Bourne Identity
Год выпуска: 2002
Страна: США, Германия, Чехия
Жанр: Боевик, Детектив, Триллер
Описание фильма:
Команда итальянского рыболовецкого судна находит в водах Средиземного моря тело мужчины. У него два пулевых ранения в спине и имплантированный в бедро микрофильм, помеченный номером швейцарского банка. Когда незнакомец приходит в себя, оказывается, что он не помнит кто он, и что с ним случилось, однако он может говорить на нескольких языках и обладает другими необычными способностями.
Получив в Цюрихе деньги с указанного банковского счета, он узнает свое имя Джейсон Борн. Но настоящее это его имя или нет? Пытаясь восстановить свое прошлое, он находит свой адрес в Париже, но вместе с этим понимает, что отслеживается убийцей. Борн уговаривает немецкую студентку Мэри отвезти его в Париж, чтобы выяснить все о своем прошлом и понять, кто хочет его убить…

Режиссер: Даг Лайман
Актеры: Мэтт Дэймон, Франка Потенте, Крис Купер, Клайв Оуэн, Брайан Кокс, Адевале Акиннуойе-Агбадже, Гэбриел Манн, Уолтон Гоггинс, Джош Хэмилтон, Джулия Стайлз и др.
Продолжительность: 01:58:36
Перевод: Профессиональный (полное дублирование)- -Дата мировой премьеры: 6 июня 2002
Дата российской премьеры: 10 октября 2002, «Ист-Вест»
Дата выхода DVD релиза: 7 июля 2011, «Флагман-Трейд»
Видеокодек: VC-1
Битрейт видео: ~27,8 Мбит/сек
Размер кадра: 1920x1080
Качество видео: BDRemux
Формат: M2TS
Аудиокодек: DTS , DTS-HD МА
Аудио #1: Английский ( DTS-HD MA / 5.1 / 48 kHz / 1783 kbps / 24-bit ( DTS / 5.1 / 48 kHz / 1510 kbps / 24-bit)
Аудио #2: Русский ( DTS / 5.1 / 48 kHz / 755 kbps / 24-bit ) - Дубляж-

MediaInfo

Общее
Идентификатор : 1 (0x1)
Полное имя : E:\Интернет-загрузки\Готовые торренты\Dzhejson.Born.Trilogija.2002-2007.VC-1.BDRemux.(1080p).Marchik60\Identifikacija.Borna.2002.VC-1.BDRemux.(1080p).Marchik60.m2ts
Формат : BDAV
Формат/Информация : Blu-ray Video
Размер файла : 26,2 Гбайт
Продолжительность : 1 ч. 58 м.
Режим общего битрейта : Переменный
Общий поток : 31,6 Мбит/сек
Максимальный общий битрейт : 35,5 Мбит/сек
Видео
Идентификатор : 4113 (0x1011)
Идентификатор меню : 1 (0x1)
Формат : VC-1
Профиль формата : [email protected]
Идентификатор кодека : 234
Продолжительность : 1 ч. 58 м.
Битрейт : 27,8 Мбит/сек
Ширина : 1920 пикселей
Высота : 1080 пикселей
Соотношение сторон : 16:9
Частота кадров : 23,976 кадра/сек
Субдискретизация насыщенности : 4:2:0
Битовая глубина : 8 бит
Тип развёртки : Прогрессивная
Метод сжатия : С потерями
Бит/(Пиксели*Кадры) : 0.559
Размер потока : 23,0 Гбайт (88%)
Аудио #1
Идентификатор : 4352 (0x1100)
Идентификатор меню : 1 (0x1)
Формат : DTS
Формат/Информация : Digital Theater Systems
Профиль формата : MA / Core
Режим смешивания : Stream extension
Идентификатор кодека : 134
Продолжительность : 1 ч. 58 м.
Вид битрейта : Переменный
Битрейт : 1783 Кбит/сек / 1510 Кбит/сек
Каналы : 6 каналов
Расположение каналов : Front: L C R, Side: L R, LFE
Частота : 48,0 КГц
Битовая глубина : 24 бит
Метод сжатия : Без потерь / Lossy
Язык : English
Аудио #2
Идентификатор : 4353 (0x1101)
Идентификатор меню : 1 (0x1)
Формат : DTS
Формат/Информация : Digital Theater Systems
Идентификатор кодека : 130
Продолжительность : 1 ч. 58 м.
Вид битрейта : Постоянный
Битрейт : 755 Кбит/сек
Каналы : 6 каналов
Расположение каналов : Front: L C R, Side: L R, LFE
Частота : 48,0 КГц
Битовая глубина : 24 бит
Метод сжатия : С потерями
Размер потока : 640 Мбайт (2%)
Язык : Russian
-Скриншоты:

         
         
--Превосходство Борна / The Bourne Supremacy (2004) BDRemux- Русское название: Превосходство Борна
Оригинальное название: The Bourne Supremacy
Год выпуска: 2004
Страна: США, Германия
Жанр: Боевик, Детектив, Триллер
Описание фильма:
Суперагент ЦРУ Джейсон Борн вновь оказывается подставленным и вынужден помимо возложенной на него задачи государственного значения спасать себя, а заодно и других небезразличных ему людей.
В процессе выполнения миссии судьба заносит Борна в Россию, где его ждет множество характерных для страны, но непривычных западному человеку сюрпризов.

Режиссер: Пол Гринграсс
Актеры: Мэтт Дэймон, Франка Потенте, Брайан Кокс, Джулия Стайлз, Карл Урбан, Гэбриел Манн, Джоан Аллен, Мартон Чокаш, Том Гэллоп, Джон Бедфорд Ллойд и др.
Продолжительность: 01:48:31
Перевод: Профессиональный (полное дублирование)- -Дата мировой премьеры: 15 июля 2004
Дата российской премьеры: 2 сентября 2004, «UIP»
Дата выхода DVD релиза: 14 июля 2011, «Флагман-Трейд»
Видеокодек: VC-1
Битрейт видео: ~30,9 Мбит/сек
Размер кадра: 1920x1080
Качество видео: BDRemux
Формат: M2TS
Аудиокодек: DTS , DTS-HD МА
Аудио #1: Английский ( DTS-HD MA / 5.1 / 48 kHz / 1783 kbps / 24-bit ( DTS / 5.1 / 48 kHz / 1510 kbps / 24-bit)
Аудио #2: Русский ( DTS / 5.1 / 48 kHz / 755 kbps / 24-bit ) - Дубляж-

MediaInfo

Общее
Идентификатор : 1 (0x1)
Полное имя : E:\Интернет-загрузки\Готовые торренты\Dzhejson.Born.Trilogija.2002-2007.VC-1.BDRemux.(1080p).Marchik60\Prevoshodstvo.Borna.2004.VC-1.BDRemux.(1080p).Marchik60.m2ts
Формат : BDAV
Формат/Информация : Blu-ray Video
Размер файла : 26,4 Гбайт
Продолжительность : 1 ч. 48 м.
Режим общего битрейта : Переменный
Общий поток : 34,8 Мбит/сек
Максимальный общий битрейт : 35,5 Мбит/сек
Видео
Идентификатор : 4113 (0x1011)
Идентификатор меню : 1 (0x1)
Формат : VC-1
Профиль формата : [email protected]
Идентификатор кодека : 234
Продолжительность : 1 ч. 48 м.
Битрейт : 30,9 Мбит/сек
Ширина : 1920 пикселей
Высота : 1080 пикселей
Соотношение сторон : 16:9
Частота кадров : 23,976 кадра/сек
Субдискретизация насыщенности : 4:2:0
Битовая глубина : 8 бит
Тип развёртки : Прогрессивная
Метод сжатия : С потерями
Бит/(Пиксели*Кадры) : 0.621
Размер потока : 23,4 Гбайт (89%)
Аудио #1
Идентификатор : 4352 (0x1100)
Идентификатор меню : 1 (0x1)
Формат : DTS
Формат/Информация : Digital Theater Systems
Профиль формата : MA / Core
Режим смешивания : Stream extension
Идентификатор кодека : 134
Продолжительность : 1 ч. 48 м.
Вид битрейта : Переменный
Битрейт : 1783 Кбит/сек / 1510 Кбит/сек
Каналы : 6 каналов
Расположение каналов : Front: L C R, Side: L R, LFE
Частота : 48,0 КГц
Битовая глубина : 24 бит
Метод сжатия : Без потерь / Lossy
Язык : English
Аудио #2
Идентификатор : 4353 (0x1101)
Идентификатор меню : 1 (0x1)
Формат : DTS
Формат/Информация : Digital Theater Systems
Идентификатор кодека : 130
Продолжительность : 1 ч. 48 м.
Вид битрейта : Постоянный
Битрейт : 755 Кбит/сек
Каналы : 6 каналов
Расположение каналов : Front: L C R, Side: L R, LFE
Частота : 48,0 КГц
Битовая глубина : 24 бит
Метод сжатия : С потерями
Размер потока : 586 Мбайт (2%)
Язык : Russian
-Скриншоты:

         
         
--Ультиматум Борна / The Bourne Ultimatum (2007) BDRemux- Русское название: Ультиматум Борна
Оригинальное название: The Bourne Ultimatum
Год выпуска: 2007
Страна: США, Германия
Жанр: Боевик, Детектив, Триллер
Описание фильма:
Он хотел одного — исчезнуть. Вместо этого за Борном теперь охотятся люди, которые сделали его таким, какой он есть. Он потерял память и человека, которого он любил. Но его не удается сдержать даже новому поколению профессиональных убийц. У него только одна цель: вернуться к началу и узнать кем он был, Джейсон Борн.
Он мечется от Москвы к Парижу, через Мадрид и Лондон в Танжер и Нью-Йорк, пытаясь раскрыть последние загадки своего прошлого, в то время, как правительственные агенты и Интерпол пытаются помешать ему восстановить всю картину до конца.

Режиссер: Пол Гринграсс
Актеры: Мэтт Дэймон, Джулия Стайлз, Дэвид Стрэтэйрн, Скотт Гленн, Пэдди Консидайн, Эдгар Рамирез, Альберт Финни, Джоан Аллен, Том Гэллоп, Кори Джонсон и др.
Продолжительность: 01:55:13
Перевод: Профессиональный (полное дублирование)- -Дата мировой премьеры: 25 июля 2007
Дата российской премьеры: 23 августа 2007, «UPI»
Дата выхода DVD релиза: 10 марта 2011, «ВС трейд»
Видеокодек: VC-1
Битрейт видео: ~29,2 Мбит/сек
Размер кадра: 1920x1080
Качество видео: BDRemux
Формат: M2TS
Аудиокодек: DTS , DTS-HD МА
Аудио #1: Английский ( DTS-HD MA / 5.1 / 48 kHz / 1783 kbps / 24-bit ( DTS / 5.1 / 48 kHz / 1510 kbps / 24-bit)
Аудио #2: Русский ( DTS / 5.1 / 48 kHz / 755 kbps / 24-bit ) - Дубляж-

MediaInfo

Общее
Идентификатор : 1 (0x1)
Полное имя : E:\Интернет-загрузки\Готовые торренты\Dzhejson.Born.Trilogija.2002-2007.VC-1.BDRemux.(1080p).Marchik60\Ultimatum.Borna.2007.VC-1.BDRemux.(1080p).Marchik60.m2ts
Формат : BDAV
Формат/Информация : Blu-ray Video
Размер файла : 26,6 Гбайт
Продолжительность : 1 ч. 55 м.
Режим общего битрейта : Переменный
Общий поток : 33,0 Мбит/сек
Максимальный общий битрейт : 35,5 Мбит/сек
Видео
Идентификатор : 4113 (0x1011)
Идентификатор меню : 1 (0x1)
Формат : VC-1
Профиль формата : [email protected]
Идентификатор кодека : 234
Продолжительность : 1 ч. 55 м.
Битрейт : 29,2 Мбит/сек
Ширина : 1920 пикселей
Высота : 1080 пикселей
Соотношение сторон : 16:9
Частота кадров : 23,976 кадра/сек
Субдискретизация насыщенности : 4:2:0
Битовая глубина : 8 бит
Тип развёртки : Прогрессивная
Метод сжатия : С потерями
Бит/(Пиксели*Кадры) : 0.586
Размер потока : 23,5 Гбайт (88%)
Аудио #1
Идентификатор : 4352 (0x1100)
Идентификатор меню : 1 (0x1)
Формат : DTS
Формат/Информация : Digital Theater Systems
Профиль формата : MA / Core
Режим смешивания : Stream extension
Идентификатор кодека : 134
Продолжительность : 1 ч. 55 м.
Вид битрейта : Переменный
Битрейт : 1783 Кбит/сек / 1510 Кбит/сек
Каналы : 6 каналов
Расположение каналов : Front: L C R, Side: L R, LFE
Частота : 48,0 КГц
Битовая глубина : 24 бит
Метод сжатия : Без потерь / Lossy
Язык : English
Аудио #2
Идентификатор : 4353 (0x1101)
Идентификатор меню : 1 (0x1)
Формат : DTS
Формат/Информация : Digital Theater Systems
Идентификатор кодека : 130
Продолжительность : 1 ч. 55 м.
Вид битрейта : Постоянный
Битрейт : 755 Кбит/сек
Каналы : 6 каналов
Расположение каналов : Front: L C R, Side: L R, LFE
Частота : 48,0 КГц
Битовая глубина : 24 бит
Метод сжатия : С потерями
Размер потока : 622 Мбайт (2%)
Язык : Russian
-Скриншоты:

         
         
--
Other forum [Profile] [PM]
Display posts from previous:    
Reply to topic

The time now is: Today 01:31

All times are GMT + 3 Hours



You cannot post new topics in this forum
You cannot reply to topics in this forum
You cannot edit your posts in this forum
You cannot delete your posts in this forum
You cannot vote in polls in this forum
You cannot attach files in this forum
You cannot download files in this forum