Today is a free download without charge Download

Титаник / Titanic (Джеймс Кэмерон) [1997 г., Драма, HDTVRip 1080p]

Reply to topic
 
Author
Message

zeke ®

Gender:

Longevity: 9 years 6 months

Posts: 66

Торрент-статистика

Post 13-Mar-2011 14:10

[Quote]

Титаник / Titanic
«Ничто на Земле не сможет разлучить их»- Год выпуска: 1997
Страна: США
Жанр: Драма, мелодрама, история
Продолжительность: 03:06:49
Режиссер: Джеймс Кэмерон
Продюссер: Джеймс Кэмерон, Памела Исли, Эл Гиддингс
Сценарий: Джеймс Кэмерон
Перевод:
Профессиональный (полное дублирование)
Профессиональный (многоголосый, закадровый)
Оригинальная дорожка
Субтитры:
Русские
Английские
Бюджет: $200 000 000
Премьера в мире: 1 ноября 1997
В ролях: Леонардо ДиКаприо, Кейт Уинслет, Билли Зейн, Кэти Бейтс, Фрэнсис Фишер, Глория Стюарт, Билл Пэкстон, Бернард Хилл, Дэвид Уорнер, Виктор Гарбер
Описание: Молодые влюбленные Джек и Роза находят друг друга в первом и последнем плавании «непотопляемого» Титаника. Они не могли знать, что шикарный лайнер столкнется с айсбергом в холодных водах Северной Атлантики, и их страстная любовь превратится в схватку со смертью...
Качество: HDTVRip 1080p
Контейнер: MKV
Видео кодек: H.264
Аудио кодек: AC3
Видео: 1920x832 (16:9), 25.000 fps, 9 697 Kbps, H.264, Profile [email protected]
Аудио:
AC3, Russian, 5.1 channels, 448kbps, 16 bits, 48.0 KHz - Профессиональный (полное дублирование)
AC3, Russian, 5.1 channels, 448kbps, 16 bits, 48.0 KHz - Профессиональный (многоголосый, закадровый)
AC3, Russian, 5.1 channels, 448kbps, 16 bits, 48.0 KHz - Профессиональный (многоголосый, закадровый)
AC3, Russian, 5.1 channels, 448kbps, 16 bits, 48.0 KHz - Оригинальная дорожка
Сэмпл

MediaInfo

General
Unique ID : 187217568472645935627871855253110465252 (0x8CD8CAC89E23AAB89D1C9A593A8122E4)
Complete name : E:\Титаник [HDTVRip 1080p] (1997).mkv
Format : Matroska
File size : 15.0 GiB
Duration : 3h 6mn
Overall bit rate : 11.5 Mbps
Encoded date : UTC 2011-03-13 09:29:04
Writing application : mkvmerge v4.5.0 ('Speed of Light') сборка от Feb 1 2011 02:10:32
Writing library : libebml v1.2.0 + libmatroska v1.1.0
Video
ID : 1
Format : AVC
Format/Info : Advanced Video Codec
Format profile : [email protected]
Format settings, CABAC : Yes
Format settings, ReFrames : 16 frames
Codec ID : V_MPEG4/ISO/AVC
Duration : 3h 6mn
Bit rate : 9 697 Kbps
Width : 1 920 pixels
Height : 832 pixels
Display aspect ratio : 2.35:1
Frame rate : 25.000 fps
Color space : YUV
Chroma subsampling : 4:2:0
Bit depth : 8 bits
Scan type : Progressive
Bits/(Pixel*Frame) : 0.243
Stream size : 12.4 GiB (82%)
Title : Freeisland.HD
Writing library : x264 core 112 r1867 22bfd31
Encoding settings : cabac=1 / ref=16 / deblock=1:-1:-1 / analyse=0x3:0x133 / me=hex / subme=8 / psy=1 / psy_rd=1.00:0.15 / mixed_ref=1 / me_range=16 / chroma_me=1 / trellis=1 / 8x8dct=1 / cqm=0 / deadzone=21,11 / fast_pskip=1 / chroma_qp_offset=-3 / threads=2 / sliced_threads=0 / nr=0 / decimate=1 / interlaced=0 / constrained_intra=0 / bframes=8 / b_pyramid=2 / b_adapt=2 / b_bias=0 / direct=3 / weightb=1 / open_gop=0 / weightp=2 / keyint=250 / keyint_min=25 / scenecut=40 / intra_refresh=0 / rc_lookahead=50 / rc=2pass / mbtree=1 / bitrate=9697 / ratetol=1.0 / qcomp=0.60 / qpmin=0 / qpmax=51 / qpstep=4 / cplxblur=20.0 / qblur=0.5 / ip_ratio=1.40 / aq=1:1.00
Language : English
Audio #1
ID : 2
Format : AC-3
Format/Info : Audio Coding 3
Mode extension : CM (complete main)
Codec ID : A_AC3
Duration : 3h 6mn
Bit rate mode : Constant
Bit rate : 448 Kbps
Channel(s) : 6 channels
Channel positions : Front: L C R, Side: L R, LFE
Sampling rate : 48.0 KHz
Bit depth : 16 bits
Compression mode : Lossy
Delay relative to video : 54ms
Stream size : 599 MiB (4%)
Title : AC3, Russian, 5.1 channels, 448 kbps, 16 bits, 48.0 KHz [Дубляж]
Language : Russian
Audio #2
ID : 3
Format : AC-3
Format/Info : Audio Coding 3
Mode extension : CM (complete main)
Codec ID : A_AC3
Duration : 3h 6mn
Bit rate mode : Constant
Bit rate : 448 Kbps
Channel(s) : 6 channels
Channel positions : Front: L C R, Side: L R, LFE
Sampling rate : 48.0 KHz
Bit depth : 16 bits
Compression mode : Lossy
Delay relative to video : 54ms
Stream size : 599 MiB (4%)
Title : AC3, Russian, 5.1 channels, 448 kbps, 16 bits, 48.0 KHz [Закадровый]
Language : Russian
Audio #3
ID : 4
Format : AC-3
Format/Info : Audio Coding 3
Mode extension : CM (complete main)
Codec ID : A_AC3
Duration : 3h 6mn
Bit rate mode : Constant
Bit rate : 448 Kbps
Channel(s) : 6 channels
Channel positions : Front: L C R, Side: L R, LFE
Sampling rate : 48.0 KHz
Bit depth : 16 bits
Compression mode : Lossy
Delay relative to video : 1s 627ms
Stream size : 599 MiB (4%)
Title : AC3, Russian, 5.1 channels, 448 kbps, 16 bits, 48.0 KHz [Закадровый]
Language : Russian
Audio #4
ID : 5
Format : AC-3
Format/Info : Audio Coding 3
Mode extension : CM (complete main)
Codec ID : A_AC3
Duration : 3h 6mn
Bit rate mode : Constant
Bit rate : 448 Kbps
Channel(s) : 6 channels
Channel positions : Front: L C R, Side: L R, LFE
Sampling rate : 48.0 KHz
Bit depth : 16 bits
Compression mode : Lossy
Delay relative to video : 54ms
Stream size : 599 MiB (4%)
Title : AC3, English, 5.1 channels, 448 kbps, 16 bits, 48.0 KHz [Оригинал]
Language : English
Text #1
ID : 6
Format : UTF-8
Codec ID : S_TEXT/UTF8
Codec ID/Info : UTF-8 Plain Text
Title : Russian
Language : Russian
Text #2
ID : 7
Format : UTF-8
Codec ID : S_TEXT/UTF8
Codec ID/Info : UTF-8 Plain Text
Title : English
Language : English

Скриншоты

    

_________________
|LOST|
Other forum [Profile] [PM]
Similar theme
Forum Topic Author Torrent Replies Last Post
./templates/default/images/folder_dl.gif Фантастика, фэнтези, ужасы, мистика Ливадный Андрей - ТИТАНОВАЯ ЛОЗА [Дим Димыч, 2011 г., 192 kbps, MP3] Omen
1 | 0

0 | 1720

7

2011-09-11 23:15
Omen Latest
Display posts from previous:    
Reply to topic

The time now is: Today 18:03

All times are GMT + 3 Hours



You cannot post new topics in this forum
You cannot reply to topics in this forum
You cannot edit your posts in this forum
You cannot delete your posts in this forum
You cannot vote in polls in this forum
You cannot attach files in this forum
You cannot download files in this forum