Today is a free download without charge Download

Judas Priest - British Steel Live (30th Anniversary Deluxe Edition) [2010 г., Heavy Metal, DVDRip]

Reply to topic
 
Author
Message

sergej644 ®

Gender:

Longevity: 8 years 4 months

Posts: 657

Location: Klaipeda

Торрент-статистика

Post 20-Oct-2012 13:01

[Quote]

--Judas Priest - British Steel Live (30th Anniversary Deluxe Edition)-- - -Год выпуска: 2010 | Страна: UK | Жанр: Heavy Metal | Продолжительность: 01:28:27 Описание: В 1980 году "Judas Priest" совершили серьезный прорыв, когда шестой альбом "British Steel", сопровождаемый хит-синглами "Breaking The Law" и "Living After Midnight", угодил на третью строчку в английских чартах. Юбилейное издание приуроченное к 30-ти летию выхода "British Steel" помимо ремастированной версии альбома содержит CD и DVD c записью концерта состоявшегося 17-го августа 2009 года на Seminole Hard Rock Arena, Hollywood, Florida в рамках мирового турне группы, где Judas Priest полностью исполнили весь альбом "British Steel" Качество: DVDRip
Формат: AVI
Видео кодек: XviD
Аудио кодек: AC3

Видео: AVIВидео: 720x400(1.80:1),MPEG XViD, 29.98 fps, 2069 kbps, 0.24 bit/pixel
Аудио: 48 kHz, AC3 Dolby Digital, 6 ch (Front: L C R, Side: L R, LFE), 448 kbps
- -

треклист

01. Rapid Fire
02. Metal Gods
03. Breaking The Law
04. Grinder
05. United
06. You Don't Have To Be Old To Be Wise
07. Living After Midnight
08. The Rage
09. Steeler
10. The Ripper
11. Prophecy
12. Hell Patrol
13. Victim Of Changes
14. Freewheel Burning
15. Diamonds And Rust
16. You've Got Another Thing Coming

MediaInfo

Общее
Полное имя : T:\torrent files\Judas Priest - British Steel 2010 DVDRip,AVI\Judas Priest - British Steel 2010 DVDRip .avi
Формат : AVI
Формат/Информация : Audio Video Interleave
Размер файла : 1,56 Гбайт
Продолжительность : 1 ч. 28 м.
Общий поток : 2528 Кбит/сек
Программа кодирования : VirtualDubMod 1.5.10.2 (build 2540/release)
Библиотека кодирования : VirtualDubMod build 2540/release
Видео
Идентификатор : 0
Формат : MPEG-4 Visual
Профиль формата : Advanced [email protected]
Параметр BVOP формата : 3
Параметр QPel формата : Да
Параметр GMC формата : 3 точки перехода
Параметр матрицы формата : Default (MPEG)
Идентификатор кодека : XVID
Идентификатор кодека/Подсказка : XviD
Продолжительность : 1 ч. 28 м.
Битрейт : 2069 Кбит/сек
Ширина : 720 пикселей
Высота : 400 пикселей
Соотношение сторон : 16:9
Частота кадров : 29,970 кадров/сек
Цветовое пространство : YUV
Субдискретизация насыщенности : 4:2:0
Битовая глубина : 8 бит
Тип развёртки : Прогрессивная
Метод сжатия : С потерями
Бит/(Пиксели*Кадры) : 0.240
Размер потока : 1,28 Гбайт (82%)
Библиотека кодирования : XviD 1.2.1 (UTC 2008-12-04)
Аудио
Идентификатор : 1
Формат : AC-3
Формат/Информация : Audio Coding 3
Расширение режима : CM (complete main)
Идентификатор кодека : 2000
Продолжительность : 1 ч. 28 м.
Вид битрейта : Постоянный
Битрейт : 448 Кбит/сек
Каналы : 6 каналов
Расположение каналов : Front: L C R, Side: L R, LFE
Частота : 48,0 КГц
Битовая глубина : 16 бит
Метод сжатия : С потерями
Размер потока : 283 Мбайт (18%)
Выравнивание : Соединение по промежуткам
Продолжительность промежутка : 33 мс. (1,00 видеокадр)
Время предзагрузки промежутка : 512 мс.
-

Avi Info

 

Скриншоты

         
- -

_________________
У нас все платно: родиться, учиться, жениться, лечиться, умереть.
Бесплатно разрешено только работать.
Other forum [Profile] [PM]
Display posts from previous:    
Reply to topic

The time now is: Today 14:28

All times are GMT + 3 Hours



You cannot post new topics in this forum
You cannot reply to topics in this forum
You cannot edit your posts in this forum
You cannot delete your posts in this forum
You cannot vote in polls in this forum
You cannot attach files in this forum
You cannot download files in this forum