Today is a free download without charge Download

Пираты Карибского моря: Квадрология | Pirates of the Caribbean: Quadrilogy (Гор Вербински, Роб Маршалл) [2003/2006/2007/2011 г., боевик, фэнтези, приключения, BDRip, 720р]

Reply to topic
 
Author
Message

Meshanik ®

Gender:

Longevity: 8 years 10 months

Posts: 3866

Location: Los Angeles

Торрент-статистика

Post 20-Oct-2012 09:02

[Quote]

Пираты Карибского моря: Квадрология / Pirates of the Caribbean: Quadrology-Пираты Карибского моря: Проклятие «Чёрной жемчужины» / Pirates of the Caribbean: The Curse of the Black Pearl
«Over 3000 Islands of Paradise -- For Some it's A Blessing -- For Others... It's A Curse.»
-- Русское название: Пираты Карибского моря: Проклятие «Чёрной жемчужины»
Оригинальное название: Pirates of the Caribbean: The Curse of the Black Pearl
Год выпуска: 2003
Страна: США
Жанр: фэнтези, боевик, приключения
Продолжительность: 02:23:15
Перевод: Дублированный (Blu-ray), авторский, любительский
Язык субтитров: Русский (х2), украинский, английский
Вид cубтитров: Отдельным файлом--Дата мировой премьеры: 28 июня 2003
Дата российской премьеры: 20 августа 2003, «Каскад»
Дата выхода DVD релиза: 26 апреля 2011, «Уолт Дисней Компани СНГ»
Режиссер: Гор Вербински
Продюсер: Джерри Брукхаймер, Пол Дисон, Брюс Хендрикс
В ролях: Джонни Депп, Джеффри Раш, Орландо Блум, Кира Найтли, Джек Девенпорт, Джонатан Прайс, Ли Аренберг, Маккензи Крук, Дэмиан О’Хейр, Джиллз Нью
Описание фильма:
Жизнь харизматичного авантюриста, капитана Джека Воробья, полная увлекательных приключений, резко меняется, когда его заклятый враг — капитан Барбосса — похищает корабль Джека, Черную Жемчужину, а затем нападает на Порт Ройал и крадет прекрасную дочь губернатора, Элизабет Свонн…-- --Качество видео: ВDRip
Видеокодек: MPEG 4 AVC/H.264
Битрейт видео: ~ 6635 Кбит/сек
Размер кадра: 1280х532
Аудио #1: Русский: AC3, 6 ch, 640 Кбит/с |Дублированный|
Аудио #2: Английский: AC3, 6 ch, 640 Кбит/с
Аудиодорожки отдельным файлом:
Аудио #3: Русский: 48 kHz, AC3 Dolby Digital, 3/2 (L,C,R,l,r) + LFE ch, ~384 kbps|Авторский, П.Гланц и И.Королёва|
Аудио #4: Русский: 48 kHz, AC3 Dolby Digital, 3/2 (L,C,R,l,r) + LFE ch, ~384 kbps|Aвторский, А.Гаврилов|
Аудио #5: Русский: 48 kHz, AC3 Dolby Digital, 3/2 (L,C,R,l,r) + LFE ch, ~384 kbps|Авторский, Ю.Живов|
Аудио #6: Русский: 48 kHz, AC3 Dolby Digital, 2/0 (L,R), ~224 kbps|Любительский, студия МегаБобер|
Аудио #7: Украинский: 48 kHz, AC3 Dolby Digital, 3/2 (L,C,R,l,r) + LFE ch, ~384 kbps|Многоголосый|
--

MediaInfo

Код:
Общее
Уникальный идентификатор                 : 239693149642134066468279853264164589888 (0xB45338B00810FBBAA0E352FA5DD39140)
Полное имя                               : E:\Загрузка\Пираты Карибского моря - Квадрология\1\Пираты Карибского моря Проклятие Черной жемчужины. BDRip 720.mkv
Формат                                   : Matroska
Версия формата                           : Version 2
Размер файла                             : 7,89 Гбайт
Продолжительность                        : 2 ч. 23 м.
Общий поток                              : 7878 Кбит/сек
Дата кодирования                         : UTC 2012-10-15 11:40:47
Программа кодирования                    : mkvmerge v5.2.1 ('A Far Off Place') built on Feb  6 2012 10:08:15
Библиотека кодирования                   : libebml v1.2.3 + libmatroska v1.3.0
Видео
Идентификатор                            : 1
Формат                                   : AVC
Формат/Информация                        : Advanced Video Codec
Профиль формата                          : [email protected]
Параметр CABAC формата                   : Да
Параметр ReFrames формата                : 11 кадров
Идентификатор кодека                     : V_MPEG4/ISO/AVC
Продолжительность                        : 2 ч. 23 м.
Битрейт                                  : 6605 Кбит/сек
Ширина                                   : 1280 пикселей
Высота                                   : 532 пикселя
Соотношение сторон                       : 2,40:1
Частота кадров                           : 23,976 кадра/сек
Цветовое пространство                    : YUV
Субдискретизация насыщенности            : 4:2:0
Битовая глубина                          : 8 бит
Тип развёртки                            : Прогрессивная
Бит/(Пиксели*Кадры)                      : 0.405
Размер потока                            : 6,45 Гбайт (82%)
Заголовок                                : Rip by Voland
Библиотека кодирования                   : x264 core 88 r1471 1144615
Настройки программы                      : cabac=1 / ref=11 / deblock=1:-3:-2 / analyse=0x3:0x113 / me=umh / subme=10 / psy=1 / psy_rd=0.90:0.00 / mixed_ref=1 / me_range=64 / chroma_me=1 / trellis=2 / 8x8dct=1 / cqm=0 / deadzone=21,11 / fast_pskip=0 / chroma_qp_offset=-2 / threads=6 / sliced_threads=0 / nr=0 / decimate=1 / mbaff=0 / constrained_intra=0 / bframes=6 / b_pyramid=2 / b_adapt=2 / b_bias=0 / direct=3 / wpredb=1 / wpredp=2 / keyint=250 / keyint_min=25 / scenecut=40 / intra_refresh=0 / rc_lookahead=0 / rc=2pass / mbtree=0 / bitrate=6605 / ratetol=1.0 / qcomp=0.60 / qpmin=10 / qpmax=51 / qpstep=4 / cplxblur=20.0 / qblur=0.5 / vbv_maxrate=50000 / vbv_bufsize=62500 / ip_ratio=1.40 / pb_ratio=1.30 / aq=1:1.00
Язык                                     : English
Default                                  : Да
Forced                                   : Нет
Аудио #1
Идентификатор                            : 2
Формат                                   : AC-3
Формат/Информация                        : Audio Coding 3
Расширение режима                        : CM (complete main)
Параметр Endianness формата              : Big
Идентификатор кодека                     : A_AC3
Продолжительность                        : 2 ч. 23 м.
Вид битрейта                             : Постоянный
Битрейт                                  : 640 Кбит/сек
Каналы                                   : 6 каналов
Расположение каналов                     : Front: L C R, Side: L R, LFE
Частота                                  : 48,0 КГц
Битовая глубина                          : 16 бит
Метод сжатия                             : С потерями
Размер потока                            : 656 Мбайт (8%)
Заголовок                                : AC3 5.1 640Kbps (Дубляж)
Язык                                     : Russian
Default                                  : Да
Forced                                   : Нет
Аудио #2
Идентификатор                            : 3
Формат                                   : AC-3
Формат/Информация                        : Audio Coding 3
Расширение режима                        : CM (complete main)
Параметр Endianness формата              : Big
Идентификатор кодека                     : A_AC3
Продолжительность                        : 2 ч. 23 м.
Вид битрейта                             : Постоянный
Битрейт                                  : 640 Кбит/сек
Каналы                                   : 6 каналов
Расположение каналов                     : Front: L C R, Side: L R, LFE
Частота                                  : 48,0 КГц
Битовая глубина                          : 16 бит
Метод сжатия                             : С потерями
Размер потока                            : 656 Мбайт (8%)
Заголовок                                : AC3 5.1 640Kbps (Оригинал)
Язык                                     : English
Default                                  : Нет
Forced                                   : Нет
Меню
00:00:00.000                             : en:Opening Credits/a Pirate's Life
00:08:51.281                             : en:Pirates Ye Be Warned
00:16:05.548                             : en:Elizabeth's Rescue
00:27:16.343                             : en:The Black Pearl
00:35:59.324                             : en:Welcome Aboard
00:41:02.960                             : en:The Hunt
00:48:19.939                             : en:Finding a Crew
00:54:01.280                             : en:Aztec Gold
01:04:05.675                             : en:The Treasure of Cortez
01:15:56.802                             : en:Keep to the Code
01:21:21.418                             : en:The Battle
01:35:00.153                             : en:Stranded Again
01:40:00.745                             : en:The Curse
01:48:15.614                             : en:The Trojan Horse
02:02:02.190                             : en:The Curse Is Lifted
02:13:09.648                             : en:End Credits

Скриншоты

         
Пираты Карибского моря: Сундук мертвеца / Pirates of the Caribbean: Dead Man's Chest
«Jack is back! Never trust a pirate!»
-- Русское название: Пираты Карибского моря: Сундук мертвеца
Оригинальное название: Pirates of the Caribbean: Dead Man's Chest
Год выпуска: 2006
Страна: США
Жанр: фэнтези, боевик, приключения
Продолжительность: 02:30:39
Перевод: Дублированный (Blu-ray), авторский, любительский
Язык субтитров: Русский (х2), украинский (х2), английский
Вид cубтитров: Отдельным файлом--Дата мировой премьеры: 24 июня 2006
Дата российской премьеры: 13 июля 2006, «Каскад»
Дата выхода DVD релиза: 3 апреля 2012, «ВС трейд»
Режиссер: Гор Вербински
Продюсер: Джерри Брукхаймер, Брюс Хендрикс, Джек Ни
В ролях: Джонни Депп, Орландо Блум, Кира Найтли, Стеллан Скарсгард, Билл Найи, Джек Девенпорт, Кевин МакНэлли, Джонатан Прайс
Описание фильма:
Вновь оказавшись в ирреальном мире, лихой капитан Джек Воробей неожиданно узнает, что является должником легендарного капитана «Летучего Голландца» Дэйви Джонса. Джек должен в кратчайшие сроки решить эту проблему, иначе ему грозит вечное проклятие и рабское существование после смерти. Вдобавок ко всему, срывается свадьба Уилла Тернера и Элизабет Суонн, которые вынуждены составить Джеку компанию в его злоключениях…-- --Качество видео: ВDRip
Видеокодек: MPEG 4 AVC/H.264
Битрейт видео: ~ 6218 Кбит/сек
Размер кадра: 1280х532
Аудио #1: Русский: AC3, 6 ch, 640 Кбит/с |Дублированный|
Аудио #2: Английский: AC3, 6 ch, 640 Кбит/с
Аудиодорожки отдельным файлом:
Аудио #3: Русский: 48 kHz, AC3 Dolby Digital, 3/2 (L,C,R,l,r) + LFE ch, ~448 kbps|Авторский, П.Гланц и И.Королёва|
Аудио #4: Русский: 48 kHz, AC3 Dolby Digital, 3/2 (L,C,R,l,r) + LFE ch, ~448 kbps|Aвторский, А.Гаврилов|
Аудио #5: Русский: 48 kHz, AC3 Dolby Digital, 3/2 (L,C,R,l,r) + LFE ch, ~448 kbps|Авторский, Королев|
Аудио #6: Русский: 48 kHz, AC3 Dolby Digital, 2/0 (L,R), ~224 kbps|Любительский, студия МегаБобер|
Аудио #7: Украинский: 48 kHz, AC3 Dolby Digital, 3/2 (L,C,R,l,r) + LFE ch, ~448 kbps|Дублированный|--

MediaInfo

Код:
Общее
Уникальный идентификатор                 : 172207244943088051499678571727261237176 (0x818DE8B21A4CDA149055952397D37FB8)
Полное имя                               : E:\Загрузка\Пираты Карибского моря - Квадрология\2\Пираты Карибского моря Сундук мертвеца. BDRip 720.mkv
Формат                                   : Matroska
Версия формата                           : Version 2
Размер файла                             : 7,89 Гбайт
Продолжительность                        : 2 ч. 30 м.
Общий поток                              : 7497 Кбит/сек
Дата кодирования                         : UTC 2012-10-15 12:18:03
Программа кодирования                    : mkvmerge v5.2.1 ('A Far Off Place') built on Feb  6 2012 10:08:15
Библиотека кодирования                   : libebml v1.2.3 + libmatroska v1.3.0
Видео
Идентификатор                            : 1
Формат                                   : AVC
Формат/Информация                        : Advanced Video Codec
Профиль формата                          : [email protected]
Параметр CABAC формата                   : Да
Параметр ReFrames формата                : 11 кадров
Идентификатор кодека                     : V_MPEG4/ISO/AVC
Продолжительность                        : 2 ч. 30 м.
Битрейт                                  : 6218 Кбит/сек
Ширина                                   : 1280 пикселей
Высота                                   : 532 пикселя
Соотношение сторон                       : 2,40:1
Частота кадров                           : 23,976 кадра/сек
Цветовое пространство                    : YUV
Субдискретизация насыщенности            : 4:2:0
Битовая глубина                          : 8 бит
Тип развёртки                            : Прогрессивная
Бит/(Пиксели*Кадры)                      : 0.381
Размер потока                            : 6,39 Гбайт (81%)
Заголовок                                : Rip by Voland
Библиотека кодирования                   : x264 core 88 r1471 1144615
Настройки программы                      : cabac=1 / ref=11 / deblock=1:-3:-2 / analyse=0x3:0x113 / me=umh / subme=10 / psy=1 / psy_rd=0.90:0.00 / mixed_ref=1 / me_range=64 / chroma_me=1 / trellis=2 / 8x8dct=1 / cqm=0 / deadzone=21,11 / fast_pskip=0 / chroma_qp_offset=-2 / threads=6 / sliced_threads=0 / nr=0 / decimate=1 / mbaff=0 / constrained_intra=0 / bframes=6 / b_pyramid=2 / b_adapt=2 / b_bias=0 / direct=3 / wpredb=1 / wpredp=2 / keyint=250 / keyint_min=25 / scenecut=40 / intra_refresh=0 / rc_lookahead=0 / rc=2pass / mbtree=0 / bitrate=6218 / ratetol=1.0 / qcomp=0.60 / qpmin=10 / qpmax=51 / qpstep=4 / cplxblur=20.0 / qblur=0.5 / vbv_maxrate=50000 / vbv_bufsize=62500 / ip_ratio=1.40 / pb_ratio=1.30 / aq=1:1.00
Язык                                     : English
Default                                  : Да
Forced                                   : Нет
Аудио #1
Идентификатор                            : 2
Формат                                   : AC-3
Формат/Информация                        : Audio Coding 3
Расширение режима                        : CM (complete main)
Параметр Endianness формата              : Big
Идентификатор кодека                     : A_AC3
Продолжительность                        : 2 ч. 30 м.
Вид битрейта                             : Постоянный
Битрейт                                  : 640 Кбит/сек
Каналы                                   : 6 каналов
Расположение каналов                     : Front: L C R, Side: L R, LFE
Частота                                  : 48,0 КГц
Битовая глубина                          : 16 бит
Метод сжатия                             : С потерями
Размер потока                            : 690 Мбайт (9%)
Заголовок                                : AC3 5.1 640Kbps (Дубляж)
Язык                                     : Russian
Default                                  : Да
Forced                                   : Нет
Аудио #2
Идентификатор                            : 3
Формат                                   : AC-3
Формат/Информация                        : Audio Coding 3
Расширение режима                        : CM (complete main)
Параметр Endianness формата              : Big
Идентификатор кодека                     : A_AC3
Продолжительность                        : 2 ч. 30 м.
Вид битрейта                             : Постоянный
Битрейт                                  : 640 Кбит/сек
Каналы                                   : 6 каналов
Расположение каналов                     : Front: L C R, Side: L R, LFE
Частота                                  : 48,0 КГц
Битовая глубина                          : 16 бит
Метод сжатия                             : С потерями
Размер потока                            : 690 Мбайт (9%)
Заголовок                                : AC3 5.1 640Kbps (Оригинал)
Язык                                     : English
Default                                  : Нет
Forced                                   : Нет
Меню
00:00:00.000                             : en:01. Rained Out Wedding
00:04:18.925                             : en:02. Gibbs Is Drunk
00:09:53.009                             : en:03. Bring Me The Compass
00:12:13.441                             : en:04. The Rum's Gone
00:19:09.065                             : en:05. Elizabeth In Jail
00:23:53.474                             : en:06. Save Me
00:30:15.480                             : en:07. Salvaging the Ship
00:35:29.419                             : en:08. Swinging Cages
00:40:32.930                             : en:09. Chasing The Cage
00:46:28.035                             : en:10. Elizabeth The Stowaway
00:50:25.564                             : en:11. Tia Dalma - A Touch of Destiny
00:56:18.625                             : en:12. The Flying Dutchman
00:59:52.380                             : en:13. Davy Jones - Join My Crew
01:05:45.191                             : en:14. Tortuga - The Only Option
01:11:55.853                             : en:15. Mr. Turner - Father And Son
01:17:04.328                             : en:16. Elizabeth - Hide the Rum
01:22:10.259                             : en:17. Liars Dice - A Game of Deception
01:30:36.639                             : en:18. Persuade Me - Letters Of Full Pardon
01:34:38.172                             : en:19. The Kraken
01:39:21.831                             : en:20. Jack And Elizabeth - Very Much Alike
01:44:52.411                             : en:21. Finding The Chest
01:49:14.715                             : en:22. Fight for the Key
01:54:55.805                             : en:23. The Beating Heart Of Davy Jones
01:59:36.044                             : en:24. I Got a Jar of Dirt
02:04:59.909                             : en:25. Kraken Battle - Load the Rum
02:10:27.194                             : en:26. Abandon Ship - Into The Long Boat
02:16:20.631                             : en:27. James Norrington's Redemption
02:21:04.789                             : en:28. End Credits

Скриншоты

         
Пираты Карибского моря: На краю света / Pirates of the Caribbean: At World's End
«At the End of the World, the Adventure Begins»
-- Русское название: Пираты Карибского моря: На краю света
Оригинальное название: Pirates of the Caribbean: At World's End
Год выпуска: 2007
Страна: США
Жанр: фэнтези, боевик, приключения
Продолжительность: 02:48:31
Перевод: Дублированный (Blu-ray), авторский, любительский
Язык субтитров: Русский (х2), украинский (х2), английский
Вид cубтитров: Отдельным файлом--Дата мировой премьеры: 19 мая 2007
Дата российской премьеры: 24 мая 2007, «BVSPR»
Дата выхода DVD релиза: 3 апреля 2012, «ВС трейд»
Режиссер: Гор Вербински
Продюсер: Джерри Брукхаймер, Брюс Хендрикс, Джек Ни
В ролях: Джонни Депп, Орландо Блум, Кира Найтли, Джеффри Раш, Джонатан Прайс, Билл Найи, Чоу Юн-Фат, Том Холландер, Стеллан Скарсгард, Кевин МакНолли
Описание фильма:
Новые приключения Джека Спэрроу и его друзей Уилла Тернера и Элизабет Суонн. На этот раз Уиллу и Элизабет придется объединиться с самим Капитаном Барбоссой для того, чтобы отправиться на край света и спасти своего друга — Джека «Воробья». Ситуация осложняется тем, что Элизабет попадает к сингапурским пиратам…-- --Качество видео: ВDRip
Видеокодек: MPEG 4 AVC/H.264
Битрейт видео: ~ 5421 Кбит/сек
Размер кадра: 1280х532
Аудио #1: Русский: AC3, 6 ch, 640 Кбит/с |Дублированный|
Аудио #2: Английский: AC3, 6 ch, 640 Кбит/с
Аудиодорожки отдельным файлом:
Аудио #3: Русский: 48 kHz, AC3 Dolby Digital, 3/2 (L,C,R,l,r) + LFE ch, ~384 kbps|Авторский, П.Гланц и И.Королёва|
Аудио #4: Русский: 48 kHz, AC3 Dolby Digital, 3/2 (L,C,R,l,r) + LFE ch, ~384 kbps|Aвторский, А.Гаврилов|
Аудио #5: Русский: 48 kHz, AC3 Dolby Digital, 3/2 (L,C,R,l,r) + LFE ch, ~384 kbps|Авторский, Ю.Живов|
Аудио #6: Русский: 48 kHz, AC3 Dolby Digital, 2/0 (L,R), ~224 kbps|Любительский, студия МегаБобер|
Аудио #7: Украинский: 48 kHz, AC3 Dolby Digital, 3/2 (L,C,R,l,r) + LFE ch, ~384 kbps|Дублированный|--

MediaInfo

Код:
Общее
Уникальный идентификатор                 : 185072823738971863462247658982928185149 (0x8B3BBAB443B944859C3FC52435B6773D)
Полное имя                               : E:\Загрузка\Пираты Карибского моря - Квадрология\3\Пираты Карибского моря - На краю Света. BDRip 720.mkv
Формат                                   : Matroska
Версия формата                           : Version 2
Размер файла                             : 7,89 Гбайт
Продолжительность                        : 2 ч. 48 м.
Общий поток                              : 6700 Кбит/сек
Дата кодирования                         : UTC 2012-10-15 17:40:12
Программа кодирования                    : mkvmerge v5.2.1 ('A Far Off Place') built on Feb  6 2012 10:08:15
Библиотека кодирования                   : libebml v1.2.3 + libmatroska v1.3.0
Видео
Идентификатор                            : 1
Формат                                   : AVC
Формат/Информация                        : Advanced Video Codec
Профиль формата                          : [email protected]
Параметр CABAC формата                   : Да
Параметр ReFrames формата                : 11 кадров
Идентификатор кодека                     : V_MPEG4/ISO/AVC
Продолжительность                        : 2 ч. 48 м.
Битрейт                                  : 5421 Кбит/сек
Ширина                                   : 1280 пикселей
Высота                                   : 532 пикселя
Соотношение сторон                       : 2,40:1
Частота кадров                           : 23,976 кадра/сек
Цветовое пространство                    : YUV
Субдискретизация насыщенности            : 4:2:0
Битовая глубина                          : 8 бит
Тип развёртки                            : Прогрессивная
Бит/(Пиксели*Кадры)                      : 0.332
Размер потока                            : 6,22 Гбайт (79%)
Заголовок                                : Rip by Voland
Библиотека кодирования                   : x264 core 88 r1471 1144615
Настройки программы                      : cabac=1 / ref=11 / deblock=1:-3:-3 / analyse=0x3:0x113 / me=umh / subme=10 / psy=1 / psy_rd=0.80:0.20 / mixed_ref=1 / me_range=64 / chroma_me=1 / trellis=2 / 8x8dct=1 / cqm=0 / deadzone=21,11 / fast_pskip=0 / chroma_qp_offset=-3 / threads=6 / sliced_threads=0 / nr=0 / decimate=1 / mbaff=0 / constrained_intra=0 / bframes=6 / b_pyramid=2 / b_adapt=2 / b_bias=0 / direct=3 / wpredb=1 / wpredp=2 / keyint=250 / keyint_min=25 / scenecut=40 / intra_refresh=0 / rc_lookahead=0 / rc=2pass / mbtree=0 / bitrate=5421 / ratetol=1.0 / qcomp=0.60 / qpmin=10 / qpmax=51 / qpstep=4 / cplxblur=20.0 / qblur=0.5 / vbv_maxrate=50000 / vbv_bufsize=62500 / ip_ratio=1.40 / pb_ratio=1.30 / aq=1:1.00
Язык                                     : Russian
Default                                  : Да
Forced                                   : Нет
Аудио #1
Идентификатор                            : 2
Формат                                   : AC-3
Формат/Информация                        : Audio Coding 3
Расширение режима                        : CM (complete main)
Параметр Endianness формата              : Big
Идентификатор кодека                     : A_AC3
Продолжительность                        : 2 ч. 48 м.
Вид битрейта                             : Постоянный
Битрейт                                  : 640 Кбит/сек
Каналы                                   : 6 каналов
Расположение каналов                     : Front: L C R, Side: L R, LFE
Частота                                  : 48,0 КГц
Битовая глубина                          : 16 бит
Метод сжатия                             : С потерями
Размер потока                            : 771 Мбайт (10%)
Заголовок                                : AC3 5.1 640Kbps (Дубляж)
Язык                                     : Russian
Default                                  : Да
Forced                                   : Нет
Аудио #2
Идентификатор                            : 3
Формат                                   : AC-3
Формат/Информация                        : Audio Coding 3
Расширение режима                        : CM (complete main)
Параметр Endianness формата              : Big
Идентификатор кодека                     : A_AC3
Продолжительность                        : 2 ч. 48 м.
Вид битрейта                             : Постоянный
Битрейт                                  : 640 Кбит/сек
Каналы                                   : 6 каналов
Расположение каналов                     : Front: L C R, Side: L R, LFE
Частота                                  : 48,0 КГц
Битовая глубина                          : 16 бит
Метод сжатия                             : С потерями
Размер потока                            : 771 Мбайт (10%)
Заголовок                                : AC3 5.1 640Kbps (Оригинал)
Язык                                     : English
Default                                  : Нет
Forced                                   : Нет
Меню
00:00:00.000                             : en:A Dangerous Song
00:04:33.940                             : en:Suspended
00:10:01.810                             : en:Welcome to Singapore
00:19:58.280                             : en:Cold
00:26:07.483                             : en:Captain's Commands
00:32:47.340                             : en:A Jack of All Trades
00:39:40.336                             : en:Davy Jones' Locker
00:46:04.761                             : en:Souls at Sea
00:51:31.963                             : en:Rock and Roll
00:58:03.729                             : en:The Last Pirate
01:04:50.677                             : en:An Old Friend
01:12:46.820                             : en:A New Captain
01:17:54.877                             : en:Bootstrap
01:24:46.539                             : en:Choosing a Side
01:28:41.357                             : en:Shipwreck Island
01:33:34.149                             : en:Brethren Court
01:38:05.670                             : en:Reunion
01:41:52.981                             : en:The Pirate Code
01:48:12.652                             : en:The Exchange
01:53:13.285                             : en:Pieces of Eight
01:59:31.371                             : en:A Fool's Chance
02:05:52.210                             : en:Leverage
02:09:13.244                             : en:Time to Fly
02:13:53.524                             : en:Community Chest
02:23:19.256                             : en:Good Business
02:28:15.635                             : en:Turning Away
02:34:29.217                             : en:Egregious
02:38:48.559                             : en:Credits
02:48:30.099                             : en:End

Скриншоты

         
Пираты Карибского моря: На странных берегах / Pirates of the Caribbean: On Stranger Tides
«Live Forever or Die Trying...»
-- Русское название: Пираты Карибского моря: На странных берегах
Оригинальное название: Pirates of the Caribbean: On Stranger Tides
Год выпуска: 2011
Страна: США
Жанр: фэнтези, боевик, приключения
Продолжительность: 02:16:23
Перевод: Дублированный (Blu-ray), авторский, любительский
Язык субтитров: Русский (х2), украинский (х2), английский
Вид cубтитров: Отдельным файлом--Дата мировой премьеры: 7 мая 2011
Дата российской премьеры: 18 мая 2011, «WDSSPR» 3D
Дата выхода DVD релиза: 6 сентября 2011, «Уолт Дисней Компани СНГ»
Режиссер: Роб Маршалл
Продюсер: Джерри Брукхаймер, Джон ДеЛюка, Тед Эллиот
В ролях: Джонни Депп, Пенелопа Крус, Джеффри Раш, Иэн МакШейн, Кевин МакНэлли, Стивен Грэм, Сэм Клафлин, Астрид Берже-Фрисби, Кит Ричардс, Ричард Гриффитс
Описание фильма:
В новой истории о поисках истины, предательстве, вечной молодости и смертельной опасности капитану Джеку Воробью предстоит столкнуться с женщиной из своего прошлого Анжеликой. До самого конца не будет понятно, связывает ли их настоящая любовь, или же Анжелика искусно притворяется, чтобы вместе с Джеком добраться до таинственного источника вечной молодости.
Она силой принуждает капитана Джека Воробья взойти на корабль «Месть Королевы Анны», которым управляет коварный злодей Черная Борода. Наш герой оказывается в ситуации, когда он не знает, чего ему бояться больше — ужасного злодея или же свою давнюю подругу.-- --Качество видео: ВDRip
Видеокодек: MPEG 4 AVC/H.264
Битрейт видео: ~ 6509 Кбит/сек
Размер кадра: 1280х534
Аудио #1: Русский: AC3, 6 ch, 640 Кбит/с |Дублированный|
Аудио #2: Английский: AC3, 6 ch, 640 Кбит/с
Аудиодорожки отдельным файлом:
Аудио #3: Русский: 48 kHz, AC3 Dolby Digital, 3/2 (L,C,R,l,r) + LFE ch, ~448 kbps|Aвторский, А.Гаврилов|
Аудио #4: Русский: 48 kHz, AC3 Dolby Digital, 2/0 (L,R), ~224 kbps|Любительский, студия deBohpodast|
Аудио #5: Украинский: 48 kHz, AC3 Dolby Digital, 3/2 (L,C,R,l,r) + LFE ch, ~448 kbps|Дублированный|--

MediaInfo

Код:
Общее
Уникальный идентификатор                 : 239536475992205411694494975168153921950 (0xB4350C148DFA147D80C85DD0DF6C299E)
Полное имя                               : E:\Загрузка\Пираты Карибского моря - Квадрология\4\Пираты Карибского моря - На странных берегах. BDRip 720.mkv
Формат                                   : Matroska
Версия формата                           : Version 2
Размер файла                             : 7,42 Гбайт
Продолжительность                        : 2 ч. 16 м.
Общий поток                              : 7787 Кбит/сек
Дата кодирования                         : UTC 2012-10-15 17:55:48
Программа кодирования                    : mkvmerge v5.2.1 ('A Far Off Place') built on Feb  6 2012 10:08:15
Библиотека кодирования                   : libebml v1.2.3 + libmatroska v1.3.0
Видео
Идентификатор                            : 1
Формат                                   : AVC
Формат/Информация                        : Advanced Video Codec
Профиль формата                          : [email protected]
Параметр CABAC формата                   : Да
Параметр ReFrames формата                : 12 кадров
Идентификатор кодека                     : V_MPEG4/ISO/AVC
Продолжительность                        : 2 ч. 16 м.
Битрейт                                  : 6509 Кбит/сек
Ширина                                   : 1280 пикселей
Высота                                   : 534 пикселя
Соотношение сторон                       : 2,40:1
Частота кадров                           : 23,976 кадра/сек
Цветовое пространство                    : YUV
Субдискретизация насыщенности            : 4:2:0
Битовая глубина                          : 8 бит
Тип развёртки                            : Прогрессивная
Бит/(Пиксели*Кадры)                      : 0.397
Размер потока                            : 6,05 Гбайт (82%)
Заголовок                                : Rip by HiDt
Библиотека кодирования                   : x264 core 116 r2057 0ba8a9c
Настройки программы                      : cabac=1 / ref=12 / deblock=1:-2:-2 / analyse=0x3:0x113 / me=tesa / subme=11 / psy=1 / psy_rd=1.05:0.00 / mixed_ref=1 / me_range=32 / chroma_me=1 / trellis=2 / 8x8dct=1 / cqm=0 / deadzone=21,11 / fast_pskip=0 / chroma_qp_offset=-2 / threads=12 / sliced_threads=0 / nr=0 / decimate=1 / interlaced=0 / bluray_compat=0 / constrained_intra=0 / bframes=6 / b_pyramid=2 / b_adapt=2 / b_bias=0 / direct=3 / weightb=1 / open_gop=0 / weightp=2 / keyint=250 / keyint_min=23 / scenecut=40 / intra_refresh=0 / rc_lookahead=80 / rc=2pass / mbtree=1 / bitrate=6509 / ratetol=1.0 / qcomp=0.60 / qpmin=0 / qpmax=69 / qpstep=4 / cplxblur=20.0 / qblur=0.5 / vbv_maxrate=45000 / vbv_bufsize=40000 / nal_hrd=none / ip_ratio=1.40 / aq=1:0.90 / zones=182020,192911,b=0.5
Язык                                     : English
Default                                  : Да
Forced                                   : Нет
Аудио #1
Идентификатор                            : 2
Формат                                   : AC-3
Формат/Информация                        : Audio Coding 3
Расширение режима                        : CM (complete main)
Параметр Endianness формата              : Big
Идентификатор кодека                     : A_AC3
Продолжительность                        : 2 ч. 16 м.
Вид битрейта                             : Постоянный
Битрейт                                  : 640 Кбит/сек
Каналы                                   : 6 каналов
Расположение каналов                     : Front: L C R, Side: L R, LFE
Частота                                  : 48,0 КГц
Битовая глубина                          : 16 бит
Метод сжатия                             : С потерями
Размер потока                            : 624 Мбайт (8%)
Заголовок                                : AC3 5.1 640Kbps (Дубляж)
Язык                                     : Russian
Default                                  : Да
Forced                                   : Нет
Аудио #2
Идентификатор                            : 3
Формат                                   : AC-3
Формат/Информация                        : Audio Coding 3
Расширение режима                        : CM (complete main)
Параметр Endianness формата              : Big
Идентификатор кодека                     : A_AC3
Продолжительность                        : 2 ч. 16 м.
Вид битрейта                             : Постоянный
Битрейт                                  : 640 Кбит/сек
Каналы                                   : 6 каналов
Расположение каналов                     : Front: L C R, Side: L R, LFE
Частота                                  : 48,0 КГц
Битовая глубина                          : 16 бит
Метод сжатия                             : С потерями
Размер потока                            : 624 Мбайт (8%)
Заголовок                                : AC3 5.1 640Kbps (Оригинал)
Язык                                     : English
Default                                  : Нет
Forced                                   : Нет
Меню
00:00:00.000                             : en:Chapter 01
00:03:34.172                             : en:Chapter 02
00:08:46.776                             : en:Chapter 03
00:15:56.080                             : en:Chapter 04
00:18:34.154                             : en:Chapter 05
00:21:15.315                             : en:Chapter 06
00:30:05.512                             : en:Chapter 07
00:36:56.756                             : en:Chapter 08
00:42:05.356                             : en:Chapter 09
00:48:20.022                             : en:Chapter 10
00:53:26.077                             : en:Chapter 11
00:55:42.964                             : en:Chapter 12
00:57:52.844                             : en:Chapter 13
01:00:47.477                             : en:Chapter 14
01:08:22.223                             : en:Chapter 15
01:11:41.338                             : en:Chapter 16
01:13:03.170                             : en:Chapter 17
01:14:16.743                             : en:Chapter 18
01:23:19.994                             : en:Chapter 19
01:26:49.621                             : en:Chapter 20
01:30:16.494                             : en:Chapter 21
01:35:43.737                             : en:Chapter 22
01:40:57.926                             : en:Chapter 23
01:43:07.556                             : en:Chapter 24
01:44:51.660                             : en:Chapter 25
01:48:53.610                             : en:Chapter 26
01:57:41.471                             : en:Chapter 27
02:02:21.375                             : en:Chapter 28
02:05:51.460                             : en:Chapter 29
02:07:26.805                             : en:Chapter 30

Скриншоты

         
Other forum [Profile] [PM]
Similar theme
Forum Topic Author Torrent Replies Last Post
./templates/default/images/folder_dl.gif Фильмы в формате 3D Пираты Карибского моря: На странных берегах в 3Д / Pirates of the Caribbean: On Stranger Tides 3D (Роб Маршалл / Rob Marshall) [2011, фэнтези, боевик, комедия, приключения, BDrip, 720p] Full SideBySide / Полная горизонтальная стереопара Omen
1 | 0

0 | 767

0

2015-10-18 21:02
Omen Latest
Display posts from previous:    
Reply to topic

The time now is: Today 11:34

All times are GMT + 3 Hours



You cannot post new topics in this forum
You cannot reply to topics in this forum
You cannot edit your posts in this forum
You cannot delete your posts in this forum
You cannot vote in polls in this forum
You cannot attach files in this forum
You cannot download files in this forum