Today is a free download without charge Download

Блондинка в законе / Legally Blonde (Роберт Лукетич) [2001 г., комедия, BDRip 720p]

Reply to topic
 
Author
Message

Delia ®

Gender:

Longevity: 10 years

Posts: 1821

Торрент-статистика

Post 13-Mar-2011 02:12

[Quote]

Блондинка в законе Legally Blonde Год выпуска: 2001
Страна: США
Жанр: комедия
Продолжительность: 96 мин.
Режиссер: Роберт Лукетич
Продюссер: Рик Кидни, Кристиан МакЛафлин, Дэвид Никсей
Сценарий: Аманда Браун, Карен МакКалла Луц, Керстен Смит
Бюджет: $18 000 000
Премьера в мире: 26 июня 2001
В ролях: Риз Уизерспун, Люк Уилсон, Сэльма Блэр, Мэттью Дэвис, Виктор Гарбер, Дженнифер Кулидж, Холланд Тейлор, Эли Лартер, Джессика Коффил, Аланна Юбак
Описание: У Эль Вудс кажется, есть все, что может пожелать современная девушка. Она — красавица, президент университетского женского клуба, носит звание «Мисс Июнь» но главное, она — натуральная блондинка. Ее бойфрэнд — лучший парень университета и единственное о чем она мечтает, это — стать миссис Уорнер Хантингтон III.Но оказывается, Уорнер считает Эль слишком ветреной девушкой, и вместо долгожданного предложения руки и сердца он открывает Эль свои коварные планы, поступить в Гарвард на юридический факультет и жениться на умной интеллигентной девушке.
Качество: BDRip 720p
Формат: MKV
Видео кодек: H.264
Аудио кодек: AC3
Видео: English, 5366 Кбит/сек, 1280*544 (2,35:1), в 23,976 кадр/сек, AVC
Аудио: Russian 448 Кбит/сек, 48,0 КГц, 16 бит, 6 канала(ов), AC-3|дубляж
Аудио:Russian384 Кбит/сек, 48,0 КГц, 16 бит, 6 канала(ов), AC-3|профессиональный закадровый
Аудио:English,320 Кбит/сек, 48,0 КГц, 16 бит, 6 канала(ов), AC-3|оригинал
Субтитры:Russian, VobSub

Media Info:

Общее
Уникальный идентификатор : 198108181166584434590879561395000333583 (0x950A3F7207357E4CB7B4CAB9E6DC550F)
Полное имя : E:\торрент\Legally Blonde ( 2001) BDRip 720p .mkv
Формат : Matroska
Размер файла : 4,37 Гбайт
Продолжительность : 1 ч. 36 м.
Общий поток : 6521 Кбит/сек
Дата кодирования : UTC 2011-03-12 22:06:31
Программа кодирования : mkvmerge v4.6.0 ('Still Crazy After All These Years') сборка от Mar 10 2011 02:50:32
Библиотека кодирования : libebml v1.2.0 + libmatroska v1.1.0
Видео
Идентификатор : 1
Формат : AVC
Формат/Информация : Advanced Video Codec
Профиль формата : [email protected]
Параметр CABAC формата : Да
Параметр ReFrames формата : 10 кадры
Параметры GOP формата : M=6, N=27
Режим смешивания : Header stripping
Идентификатор кодека : V_MPEG4/ISO/AVC
Продолжительность : 1 ч. 36 м.
Битрейт : 5366 Кбит/сек
Ширина : 1280 пикс.
Высота : 544 пикс.
Соотношение сторон : 2,35:1
Частота кадров : 23,976 кадр/сек
Цветовое пространство : YUV
Подвыборка цветности : 4:2:0
Битовая глубина : 8 бит
Тип развёртки : Прогрессивная
Бит/(Пиксели*Кадры) : 0.321
Размер потока : 3,51 Гбайт (80%)
Библиотека кодирования : x264 core 114 r1913 5fd3dce
Настройки программы : cabac=1 / ref=10 / deblock=1:-1:-1 / analyse=0x3:0x133 / me=umh / subme=7 / psy=1 / psy_rd=1.00:0.15 / mixed_ref=1 / me_range=32 / chroma_me=1 / trellis=2 / 8x8dct=1 / cqm=0 / deadzone=21,11 / fast_pskip=0 / chroma_qp_offset=-3 / threads=6 / sliced_threads=0 / nr=0 / decimate=1 / interlaced=0 / constrained_intra=0 / bframes=5 / b_pyramid=2 / b_adapt=1 / b_bias=0 / direct=1 / weightb=1 / open_gop=0 / weightp=2 / keyint=250 / keyint_min=24 / scenecut=40 / intra_refresh=0 / rc_lookahead=40 / rc=2pass / mbtree=1 / bitrate=5366 / ratetol=1.0 / qcomp=0.60 / qpmin=5 / qpmax=51 / qpstep=4 / cplxblur=20.0 / qblur=0.5 / ip_ratio=1.40 / aq=1:1.00
Язык : English
Аудио #1
Идентификатор : 2
Формат : AC-3
Формат/Информация : Audio Coding 3
Расширение режима : CM (complete main)
Режим смешивания : Header stripping
Идентификатор кодека : A_AC3
Продолжительность : 1 ч. 36 м.
Вид битрейта : Постоянный
Битрейт : 448 Кбит/сек
Канал(ы) : 6 канала(ов)
Расположение каналов : Front: L C R, Side: L R, LFE
Частота : 48,0 КГц
Битовая глубина : 16 бит
Метод сжатия : С потерями
Размер потока : 308 Мбайт (7%)
Язык : Russian
Аудио #2
Идентификатор : 3
Формат : AC-3
Формат/Информация : Audio Coding 3
Расширение режима : CM (complete main)
Режим смешивания : Header stripping
Идентификатор кодека : A_AC3
Продолжительность : 1 ч. 36 м.
Вид битрейта : Постоянный
Битрейт : 384 Кбит/сек
Канал(ы) : 6 канала(ов)
Расположение каналов : Front: L C R, Side: L R, LFE
Частота : 48,0 КГц
Битовая глубина : 16 бит
Метод сжатия : С потерями
Размер потока : 264 Мбайт (6%)
Язык : Russian
Аудио #3
Идентификатор : 4
Формат : AC-3
Формат/Информация : Audio Coding 3
Расширение режима : CM (complete main)
Режим смешивания : Header stripping
Идентификатор кодека : A_AC3
Продолжительность : 1 ч. 36 м.
Вид битрейта : Постоянный
Битрейт : 320 Кбит/сек
Канал(ы) : 6 канала(ов)
Расположение каналов : Front: L C R, Side: L R, LFE
Частота : 48,0 КГц
Битовая глубина : 16 бит
Метод сжатия : С потерями
Размер потока : 220 Мбайт (5%)
Язык : English
Текст
Идентификатор : 5
Формат : VobSub
Режим смешивания : zlib
Идентификатор кодека : S_VOBSUB
Идентификатор кодека/Информация : The same subtitle format used on DVDs
Язык : Russian

Скриншоты

        

_________________
Человек – это канат, натянутый между животным и сверхчеловеком, – канат над пропастью.
В человеке ценно то, что он мост, а не цель. Фридрих Ницше


Last edited by Delia on 2011-08-25 23:37; edited 2 times in total
Other forum [Profile] [PM]
Display posts from previous:    
Reply to topic

The time now is: Today 08:57

All times are GMT + 3 Hours



You cannot post new topics in this forum
You cannot reply to topics in this forum
You cannot edit your posts in this forum
You cannot delete your posts in this forum
You cannot vote in polls in this forum
You cannot attach files in this forum
You cannot download files in this forum