Today is a free download without charge Download

Неудержимые 2 / The Expendables 2 (Саймон Уэст / Simon West) [2012, США, Боевик, триллер, DVD5]

Reply to topic
 
Author
Message

Meshanik ®

Gender:

Longevity: 8 years 10 months

Posts: 3866

Location: Los Angeles

Торрент-статистика

Post 19-Oct-2012 06:36

[Quote]

Неудержимые 2 / The Expendables 2
«Они вернулись, чтобы зажечь»
- Русское название: Неудержимые 2
Оригинальное название: The Expendables 2
Год выпуска: 2012
Производство: США / Millennium Films, Nu-Image Films
Жанр: Боевик, триллер
Продолжительность: 01:38:05
Перевод: Дублированный [лицензия]
Субтитры: Отсутствуют
Дата мировой премьеры: 8 августа 2012
Дата российской премьеры: 16 августа 2012, «UPI»
Дата выхода DVD релиза: 16 октября 2012, «Флагман-Трейд»
Дата выхода Blu-Ray релиза: 27 ноября 2012, «Флагман-Трейд»
Режиссер: Саймон Уэст
Актеры: Сильвестр Сталлоне, Джейсон Стэйтем, Дольф Лундгрен, Жан-Клод Ван Дамм, Терри Крюс, Рэнди Кутюр, Лиам Хемсворт, Юй Нань, Брюс Уиллис, Арнольд Шварценеггер
Описание фильма:
Можно ли попробовать изменить расстановку сил в мире? Да, если вы круты как Ван Дамм, у вас есть пять тонн плутония и первоклассные наемники. Стоит ли шутить с Уиллисом, когда вы ему серьезно задолжали? Нет, даже если вы опасны как Сталлоне и у вас за спиной Неудержимые. Кого позвать на такое плевое дельце, как спасение мира? Пара проверенных ребят, Стэйтем и Норрис, явно не помешают. Пригодятся и малыш Хемсворт, и опасная красотка. Но команда будет неполной без Шварценеггера. Он реально вернулся! Все в сборе. Понеслась…

Рейтинг R17 - Детям до 17 лет обязательно присутствие родителей
Качество видео: DVD5
Видеокодек: MPEG-2
Битрейт видео: ~6273 kbps
Размер кадра: [email protected] (PAL 16:9)
Аудио: AC3 5.1, 448 kbps, 48.0 KHz [Русский]
--

Дополнительные материалы:

Отсутствуют

DVDinfo:

Title: The.Expendables.2.(2012).DVD5.NNM-Club
Size: 4.37 Gb ( 4 586 460 KBytes ) - DVD-5
Enabled regions: 1, 2, 3, 4, 5, 6, 7, 8
VTS_01 :
Play Length: 01:38:05
Video: PAL 16:9 (720x576) VBR, Auto Pan&Scan
Audio:
Russian (Dolby AC3, 6 ch)
VTS_02 :
Play Length:
Video: PAL 16:9 (720x576) VBR, Auto Pan&Scan
Audio:
Russian (Dolby AC3, 2 ch)

MediaInfo:

Полное имя : D:\The.Expendables.2.(2012).DVD5.NNM-Club\VIDEO_TS\VTS_01_4.VOB
Формат : MPEG-PS
Размер файла : 1024 Мбайт
Продолжительность : 20 м.
Режим общего битрейта : Переменный
Общий поток : 6858 Кбит/сек
Видео
Идентификатор : 224 (0xE0)
Формат : MPEG Video
Версия формата : Version 2
Профиль формата : [email protected]
Параметр BVOP формата : Да
Параметр матрицы формата : Выборочная
Продолжительность : 20 м.
Вид битрейта : Переменный
Битрейт : 6273 Кбит/сек
Максимальный битрейт : 9000 Кбит/сек
Ширина : 720 пикселей
Высота : 576 пикселей
Соотношение сторон : 16:9
Частота кадров : 25,000 кадров/сек
Стандарт вещания : PAL
Цветовое пространство : YUV
Субдискретизация насыщенности : 4:2:0
Битовая глубина : 8 бит
Тип развёртки : Чересстрочная
Порядок развёртки : Верхнее поле первое
Метод сжатия : С потерями
Бит/(Пиксели*Кадры) : 0.605
Размер потока : 936 Мбайт (91%)
Аудио
Идентификатор : 189 (0xBD)-128 (0x80)
Формат : AC-3
Формат/Информация : Audio Coding 3
Расширение режима : CM (complete main)
Параметр Endianness формата : Big
Режим смешивания : DVD-Video
Продолжительность : 20 м.
Вид битрейта : Постоянный
Битрейт : 448 Кбит/сек
Каналы : 6 каналов
Расположение каналов : Front: L C R, Side: L R, LFE
Частота : 48,0 КГц
Битовая глубина : 16 бит
Метод сжатия : С потерями
Задержка видео : -664 мс.
Размер потока : 66,9 Мбайт (7%)
Меню

Изготовление релиза:

Исходник: Неудержимые 2 / The Expendables 2 (2012) DVD9.
Удалены: реклама и заставки.
Сжатие: конечные титры на 70%, сам фильм на 35%.
Меню: статичное, на русском языке.
Софт: DVD ReMake Pro (обработка диска), DVD Rebuilder + CCE/Procoder в 7 проходов (само сжатие), Adobe PhotoShop + MuxMan (работа с меню).

Лог кодирования DVD-Rebuilder'а:

[13:07:45] Phase I, PREPARATION started.
- DVD-RB v1.28.2
- AVISYNTH 2.5.8.0
- CCE 1.0.1.9 encoder selected.
- Source: DVD-VIDEO
- VTS_01: 3 584 945 sectors.
-- Scanning and writing .D2V & .AVS files
-- Processed 147 137 frames.
-- Building .AVS and .ECL files
- Reduction Level for DVD-5: 61,6%
- Overall Bitrate : 5 737Kbs
- Space for Video : 4 121 588KB
- HIGH/LOW/TYPICAL Bitrates: 5 740/5 736/5 737 Kbs
[13:10:21] Phase I, PREPARATION completed in 3 minutes.
[13:11:43] Phase II ENCODING started
- Creating M2V for VTS_01 segment 0
- Creating M2V for VTS_01 segment 1
- Creating M2V for VTS_01 segment 2
- Creating M2V for VTS_01 segment 3
- Creating M2V for VTS_01 segment 4
- Creating M2V for VTS_01 segment 5
- Creating M2V for VTS_01 segment 6
- Creating M2V for VTS_01 segment 7
[14:56:19] Phase II ENCODING completed in 105 minutes.
[14:56:46] Phase III, REBUILD started.
- Copying IFO, BUP, and unaltered files...
- Processing VTS_01
- Reading/processing TMAP table...
- Rebuilding seg 0 VOBID 1 CELLID 1
- Rebuilding seg 1 VOBID 1 CELLID 2
- Rebuilding seg 2 VOBID 1 CELLID 3
- Rebuilding seg 3 VOBID 1 CELLID 4
- Rebuilding seg 4 VOBID 1 CELLID 5
- Rebuilding seg 5 VOBID 1 CELLID 6
- Rebuilding seg 6 VOBID 1 CELLID 7
- Rebuilding seg 7 VOBID 1 CELLID 8
- Updating NAVPACKS for VOBID_01
- Updated VTS_C_ADT.
- Updated VTS_VOBU_ADMAP.
- Updated IFO: VTS_01_0.IFO
- Updating TMAP table...
- Correcting VTS Sectors...
[15:05:24] Phase III, REBUILD completed in 9 minutes.
Done.

Скриншоты меню:

   

Скриншоты:

       
       
Other forum [Profile] [PM]
Display posts from previous:    
Reply to topic

The time now is: Today 20:05

All times are GMT + 3 Hours



You cannot post new topics in this forum
You cannot reply to topics in this forum
You cannot edit your posts in this forum
You cannot delete your posts in this forum
You cannot vote in polls in this forum
You cannot attach files in this forum
You cannot download files in this forum