Today is a free download without charge Download

Мужчина с гарантией (Артем Аксененко) [2012 г., комедия, семейный, DVD9]

Reply to topic
 
Author
Message

Meshanik ®

Gender:

Longevity: 9 years 4 months

Posts: 3866

Location: Los Angeles

Торрент-статистика

Post 19-Oct-2012 01:04

[Quote]

Мужчина с гарантией- Русское название: Мужчина с гарантией
Год выпуска: 2012
Производство: Россия / Enjoy Movies
Жанр: Комедия, семейный
Продолжительность: 01:20:44
Перевод: Оригинал
Субтитры: Отсутствуют-Дата мировой премьеры: 27 сентября 2012
Дата российской премьеры: 27 сентября 2012, «Каропрокат»
Дата выхода DVD релиза: 22 октября 2012, «Новый Диск»-Режиссер: Артем Аксененко
Продюсер: Георгий Малков, Сарик Андреасян, Гевонд Андреасян
В ролях: Александр Олешко, Нонна Гришаева, Петр Федоров, Дмитрий Нагиев, Юлия Гришина, Дмитрий Шаракоис, Михаил Павлик (повар), Сергей Походаев, Ольга Волкова, Андрей Федорцов, Екатерина Тимофеева, Юрий Никулин мл.-Описание фильма: В одном большом и любимом горожанами торговом центре работает охранником необычный человек. Он помогает всем вокруг: продавцам общепита и модной одежды, уборщикам и барменам в кафетерии. Он знает всё и всех, и все знают и любят его! Он словно домовой в этом огромном здании с миллионом неоновых вывесок и ярких стеклянных витрин. Ведь здесь он не только работает, но и живет полноценной жизнью — бесплатно одевается, питается в ресторанах, спит в мебельном отделе и участвует в ночных гонках на полотерах. «Какой странный персонаж!» — подумаете вы. На самом деле, у нашего героя есть хрустальная и загадочная мечта, на осуществление которой он старательно копит деньги на «зарплатной» банковской карте. Однажды в его жизни появляется стажерка, которую необходимо обучить всему, что умеет он сам. Отношения, начавшиеся как обременительная обязанность, постепенно начинают перерастать дружеские. Ну а дружба между мужчиной и женщиной вещь весьма специфическая, тут и до романтики недалеко! Однако, герой не знает одной важной детали: эта его «коллега» — владелица всего торгового центра.- -Качество видео: DVD9
Видеокодек: MPEG-2
Битрейт видео: ~ 7 731 Kbps
Размер кадра: PAL 16:9 ([email protected])
Аудио 1: AC3; 384 Kbps; CBR; 6 ch; 16 bit
Аудио 2: DTS; 1510 Kbps; CBR; 6 ch; 24 bit

Дополнительно:

Анонсы

DVDinfo

Title:
Size: 6.93 Gb ( 7 270 710 KBytes ) - DVD-9
Enabled regions: 1, 2, 3, 4, 5, 6, 7, 8
VTS_01 :
Play Length: 00:00:15
Video: PAL 16:9 (720x576) VBR, Auto Pan&Scan
VTS_02 :
Play Length: 00:00:07
Video: PAL 16:9 (720x576) VBR, Auto Pan&Scan
Audio:
Not specified (MPEG1, 2 ch)
VTS_03 :
Play Length: 00:02:01
Video: PAL 16:9 (720x576) VBR, Auto Pan&Scan
Audio:
Russian (Dolby AC3, 2 ch)
VTS_04 :
Play Length: 00:02:03
Video: PAL 16:9 (720x576) VBR, Auto Pan&Scan
Audio:
Russian (Dolby AC3, 2 ch)
VTS_05 :
Play Length: 00:01:25
Video: PAL 16:9 (720x576) VBR, Auto Pan&Scan
Audio:
Russian (Dolby AC3, 2 ch)
Russian (Dolby AC3, 2 ch)
VTS_06 :
Play Length: 00:02:01
Video: PAL 16:9 (720x576) VBR, Auto Pan&Scan
Audio:
Russian (Dolby AC3, 2 ch)
Russian (Dolby AC3, 2 ch)
VTS_07 :
Play Length: 00:02:32
Video: PAL 16:9 (720x576) VBR, Auto Pan&Scan
Audio:
Russian (Dolby AC3, 2 ch)
Russian (Dolby AC3, 2 ch)
VTS_08 :
Play Length: 00:02:03
Video: PAL 16:9 (720x576) VBR, Auto Pan&Scan
Audio:
Russian (Dolby AC3, 2 ch)
Russian (Dolby AC3, 2 ch)
VTS_09 :
Play Length: 00:02:00
Video: PAL 16:9 (720x576) VBR, Auto Pan&Scan
Audio:
Russian (Dolby AC3, 2 ch)
Russian (Dolby AC3, 2 ch)
VTS_10 :
Play Length: 00:02:18
Video: PAL 16:9 (720x576) VBR, Auto Pan&Scan
Audio:
Russian (Dolby AC3, 2 ch)
Russian (Dolby AC3, 2 ch)
VTS_11 :
Play Length: 00:01:40
Video: PAL 16:9 (720x576) VBR, Auto Pan&Scan
Audio:
Russian (Dolby AC3, 2 ch)
Russian (Dolby AC3, 2 ch)
VTS_12 :
Play Length: 00:02:27
Video: PAL 16:9 (720x576) VBR, Auto Pan&Scan
Audio:
Russian (Dolby AC3, 2 ch)
Russian (Dolby AC3, 2 ch)
VTS_13 :
Play Length: 00:01:56
Video: PAL 16:9 (720x576) VBR, Auto Pan&Scan
Audio:
Russian (Dolby AC3, 2 ch)
Russian (Dolby AC3, 2 ch)
VTS_14 :
Play Length: 00:02:24
Video: PAL 16:9 (720x576) VBR, Auto Pan&Scan
Audio:
Russian (Dolby AC3, 2 ch)
Russian (Dolby AC3, 2 ch)
VTS_15 :
Play Length: 00:01:50
Video: PAL 16:9 (720x576) VBR, Auto Pan&Scan
Audio:
Russian (Dolby AC3, 2 ch)
Russian (Dolby AC3, 2 ch)
VTS_16 :
Play Length: 00:02:18
Video: PAL 16:9 (720x576) VBR, Auto Pan&Scan
Audio:
Russian (Dolby AC3, 2 ch)
Russian (Dolby AC3, 2 ch)
VTS_17 :
Play Length: 00:02:31
Video: PAL 16:9 (720x576) VBR, Auto Pan&Scan
Audio:
Russian (Dolby AC3, 2 ch)
Russian (Dolby AC3, 2 ch)
VTS_18 :
Play Length: 01:20:44
Video: PAL 16:9 (720x576) VBR, Auto Pan&Scan, Auto Letterboxed
Audio:
Russian (Dolby AC3, 6 ch)
Russian (DTS, 5 ch)

Mediainfo

General
Complete name : G:\Muzhchina.s.garantiej.2012.O.DVD9\VIDEO_TS\VTS_18_2.VOB
Format : MPEG-PS
File size : 1 024 MiB
Duration : 14mn 34s
Overall bit rate mode : Variable
Overall bit rate : 9 820 Kbps
Video
ID : 224 (0xE0)
Format : MPEG Video
Format version : Version 2
Format profile : [email protected]
Format settings, BVOP : Yes
Format settings, Matrix : Custom
Duration : 14mn 34s
Bit rate mode : Variable
Bit rate : 7 731 Kbps
Maximum bit rate : 9 800 Kbps
Width : 720 pixels
Height : 576 pixels
Display aspect ratio : 16:9
Frame rate : 25.000 fps
Standard : PAL
Color space : YUV
Chroma subsampling : 4:2:0
Bit depth : 8 bits
Scan type : Interlaced
Scan order : Top Field First
Compression mode : Lossy
Bits/(Pixel*Frame) : 0.746
Stream size : 806 MiB (79%)
Audio #1
ID : 189 (0xBD)-128 (0x80)
Format : AC-3
Format/Info : Audio Coding 3
Mode extension : CM (complete main)
Format settings, Endianness : Big
Muxing mode : DVD-Video
Duration : 14mn 34s
Bit rate mode : Constant
Bit rate : 384 Kbps
Channel(s) : 6 channels
Channel positions : Front: L C R, Side: L R, LFE
Sampling rate : 48.0 KHz
Bit depth : 16 bits
Compression mode : Lossy
Delay relative to video : -304ms
Stream size : 40.0 MiB (4%)
Audio #2
ID : 189 (0xBD)-137 (0x89)
Format : DTS
Format/Info : Digital Theater Systems
Muxing mode : DVD-Video
Duration : 14mn 34s
Bit rate mode : Constant
Bit rate : 1 510 Kbps
Channel(s) : 6 channels
Channel positions : Front: L C R, Side: L R, LFE
Sampling rate : 48.0 KHz
Bit depth : 24 bits
Compression mode : Lossy
Delay relative to video : -400ms
Stream size : 157 MiB (15%)
Menu

Скриншоты Меню:

     
Скриншоты:        
Other forum [Profile] [PM]
Display posts from previous:    
Reply to topic

The time now is: Today 15:14

All times are GMT + 3 Hours



You cannot post new topics in this forum
You cannot reply to topics in this forum
You cannot edit your posts in this forum
You cannot delete your posts in this forum
You cannot vote in polls in this forum
You cannot attach files in this forum
You cannot download files in this forum