Today is a free download without charge Download

Приходи как есть / Hasta la Vista! ( Жоффрей Энтховен) (Драма, Комедия)(2012)[H.264/720р-LQ] BDRip

Reply to topic
 
Author
Message

KirovSOFT ®

Gender:

Longevity: 9 years 2 months

Posts: 998

Location: Кировская область -Оричи

Торрент-статистика

Post 18-Oct-2012 09:23

[Quote]

Приходи как есть / Hasta la Vista! (2012) BDRip- Русское название: Приходи как есть
Оригинальное название: Hasta la Vista!
Год выпуска: 2012
Производство: Бельгия, Fobic Films, ÉÉN, K 2
Жанр: Драма, Комедия
Перевод: Профессиональный многоголосый [Лицензия]
Субтитры: Отсутствуют
Дата мировой премьеры: 2 сентября 2011
Дата российской премьеры: 19 июля 2012, «Кино без границ»
Режиссер: Жоффрей Энтховен
Продюсер: Мариано Ванхуф, Аста Филпот, Жан Ринтс
Актеры: Робрехт Ванден Торен, Жилль Де Шрийвер, Том Ауденарт, Изабель де Гертог, Карлейн Силегем, Йохан Хелденберг, Кателин Вербеке, Карел Вингерхетц, Шарлотта Тиммерс, Роос Ван Владерен
Описание фильма:
История трех молодых людей, обожающих красивую жизнь, но ни разу не спавших с женщиной, потому что один из них слеп, второй передвигается на коляске, а третий и вовсе парализован. В поисках женщин они втроем отправляются в Испанию.

Продолжительность: 01:49:13
Качество видео: BDRip
Видеокодек: MPEG-4 AVC/H.264
Битрейт видео: ~2482 Кбит/сек
Размер кадра: 1280x544
Аудиокодек: AC3 5.1
Битрейт аудио: 384 Кбит/сек

MediaInfo

Продолжительность : 1 ч. 49 м.
Общий поток : 2866 Кбит/сек
Дата кодирования : UTC 2012-10-13 12:35:54
Программа кодирования : mkvmerge v5.5.0 ('Healer') built on Apr 6 2012 21:43:24
Библиотека кодирования : libebml v1.2.3 + libmatroska v1.3.0
Видео
Идентификатор : 1
Формат : AVC
Формат/Информация : Advanced Video Codec
Профиль формата : [url=mailto:[email protected]][email protected][/url]
Параметр CABAC формата : Да
Параметр ReFrames формата : 4 кадра
Идентификатор кодека : V_MPEG4/ISO/AVC
Продолжительность : 1 ч. 49 м.
Битрейт : 2482 Кбит/сек
Ширина : 1280 пикселей
Высота : 544 пикселя
Соотношение сторон : 2,35:1
Соотношение сторон в оригинале : 2,35:1
Режим частоты кадров : Постоянный
Частота кадров : 25,000 кадров/сек
Цветовое пространство : YUV
Субдискретизация насыщенности : 4:2:0
Битовая глубина : 8 бит
Тип развёртки : Прогрессивная
Бит/(Пиксели*Кадры) : 0.143
Размер потока : 1,85 Гбайт (85%)
Заголовок : Приходи как есть
Библиотека кодирования : x264 core 128 r2216 198a7ea
Настройки программы : cabac=1 / ref=4 / deblock=1:0:0 / analyse=0x3:0x133 / me=hex / subme=7 / psy=1 / psy_rd=1.00:0.00 / mixed_ref=1 / me_range=16 / chroma_me=1 / trellis=1 / 8x8dct=1 / cqm=0 / deadzone=21,11 / fast_pskip=1 / chroma_qp_offset=-2 / threads=12 / lookahead_threads=2 / sliced_threads=0 / nr=0 / decimate=1 / interlaced=0 / bluray_compat=0 / constrained_intra=0 / bframes=3 / b_pyramid=2 / b_adapt=1 / b_bias=0 / direct=1 / weightb=1 / open_gop=0 / weightp=2 / keyint=250 / keyint_min=25 / scenecut=40 / intra_refresh=0 / rc_lookahead=40 / rc=2pass / mbtree=1 / bitrate=2482 / ratetol=1.0 / qcomp=0.60 / qpmin=10 / qpmax=51 / qpstep=4 / cplxblur=20.0 / qblur=0.5 / ip_ratio=1.40 / aq=1:1.00
Язык : English
Default : Да
Forced : Нет
Аудио
Идентификатор : 2
Формат : AC-3
Формат/Информация : Audio Coding 3
Расширение режима : CM (complete main)
Параметр Endianness формата : Big
Идентификатор кодека : A_AC3
Продолжительность : 1 ч. 49 м.
Вид битрейта : Постоянный
Битрейт : 384 Кбит/сек
Каналы : 6 каналов
Расположение каналов : Front: L C R, Side: L R, LFE
Частота : 48,0 КГц
Битовая глубина : 16 бит
Метод сжатия : С потерями
Размер потока : 300 Мбайт (13%)
Заголовок : Профессиональный многоголосый
Язык : Russian
Default : Да
Forced : Нет
Скриншоты:
           

_________________
Other forum [Profile] [PM]
Display posts from previous:    
Reply to topic

The time now is: Today 15:46

All times are GMT + 3 Hours



You cannot post new topics in this forum
You cannot reply to topics in this forum
You cannot edit your posts in this forum
You cannot delete your posts in this forum
You cannot vote in polls in this forum
You cannot attach files in this forum
You cannot download files in this forum