Today is a free download without charge Download

Пёс-вампир / Vampire dog (Джофф Андерсон / Geoff Anderson) [2012, Канада, Семейный, DVDRip] DVO (Студия Tomitoot) + Original Eng

Reply to topic
 
Author
Message

Koralina ®

Longevity: 9 years 9 months

Posts: 994

Location: Lithuania

Торрент-статистика

Post 18-Oct-2012 00:06

[Quote]

Пёс-вампир / Vampire dog Русское название: Пес-вампир
Оригинальное название: Vampire Dog
Год выхода: 2012
Режиссер: Джофф Андерсон / Geoff Anderson
В ролях: Норм МакДональд, Коллин МакКечни, Джулия Стоун, Эми Матисио, Рон Педерсон, Jody Sadwosky, Кимберли Элек, Lauren Laschuk, Dylan Sthamann, Марк Клэксто
Страна производства: Канада
Продолжительность: - 01:30:52
Продюсер: Холли Бейрд, Тим Браун, Shayne Putzlocher
Сценарий: Tracy McMenemy
Жанр: семейный
Перевод: Профессиональный (двухголосый закадровый) Доп. инфо о переводе (Студия Tomitoot)
Cубтитры: нет
Оригинальная аудиодорожка: английский
Описание: Дедушка из Трансильвании оставил в наследство внуку симпатичного пса. Мальчишка и не догадывался, что пёс - вампир, со всеми вытекающими отсюда последствиями. Симпатичный говорящий пёсик, которому почти 600 лет, помог Эйсу разрулить его школьные проблемы.
Рейтинг IMDB:
Рейтинг Kinopoisk:
Качество: DVDRip
Формат аудио: AC3
Формат видео: AVI
Видео: Xvid 720x400 23.98fps 1699kbps
Аудио: Dolby AC3 48000Hz stereo 192kbps [Rus]
Аудио 2: Dolby AC3 48000Hz 6ch 384kbps [Eng]

MediaInfo

Код:
General
Complete name                            : D:\ВРЕМЕННАЯ\Pes.Vampir.2012.DVDrip.XviD.rus-eng_25KADR.avi
Format                                   : AVI
Format/Info                              : Audio Video Interleave
File size                                : 1.45 GiB
Duration                                 : 1h 30mn
Overall bit rate                         : 2 290 Kbps
Movie name                               : Pes-Vampir.2012
Original source form/Distributed by      : Vampire.Dog.2012.DVDRip.XVID.AC3.HQ.Hive-
Genre                                    : Family, Child's, Comedy, Horror, Mystic
Copyright                                : 25KADR
Comment                                  : DVO (Tomitoot studio)
Video
ID                                       : 0
Format                                   : MPEG-4 Visual
Format profile                           : Advanced [email protected]
Format settings, BVOP                    : 2
Format settings, QPel                    : Yes
Format settings, GMC                     : No warppoints
Format settings, Matrix                  : Default (H.263)
Muxing mode                              : Packed bitstream
Codec ID                                 : XVID
Codec ID/Hint                            : XviD
Duration                                 : 1h 30mn
Bit rate                                 : 1 700 Kbps
Width                                    : 720 pixels
Height                                   : 400 pixels
Display aspect ratio                     : 16:9
Frame rate                               : 23.976 fps
Color space                              : YUV
Chroma subsampling                       : 4:2:0
Bit depth                                : 8 bits
Scan type                                : Progressive
Compression mode                         : Lossy
Bits/(Pixel*Frame)                       : 0.246
Stream size                              : 1.08 GiB (74%)
Writing library                          : XviD 1.2.1 (UTC 2008-12-04)
Audio #1
ID                                       : 1
Format                                   : AC-3
Format/Info                              : Audio Coding 3
Mode extension                           : CM (complete main)
Format settings, Endianness              : Big
Codec ID                                 : 2000
Duration                                 : 1h 30mn
Bit rate mode                            : Constant
Bit rate                                 : 192 Kbps
Channel(s)                               : 2 channels
Channel positions                        : Front: L R
Sampling rate                            : 48.0 KHz
Bit depth                                : 16 bits
Compression mode                         : Lossy
Stream size                              : 125 MiB (8%)
Alignment                                : Split accross interleaves
Interleave, duration                     : 42 ms (1.00 video frame)
Interleave, preload duration             : 500 ms
Language                                 : 1.
Audio #2
ID                                       : 2
Format                                   : AC-3
Format/Info                              : Audio Coding 3
Mode extension                           : CM (complete main)
Format settings, Endianness              : Big
Codec ID                                 : 2000
Duration                                 : 1h 30mn
Bit rate mode                            : Constant
Bit rate                                 : 384 Kbps
Channel(s)                               : 6 channels
Channel positions                        : Front: L C R, Side: L R, LFE
Sampling rate                            : 48.0 KHz
Bit depth                                : 16 bits
Compression mode                         : Lossy
Stream size                              : 250 MiB (17%)
Alignment                                : Split accross interleaves
Interleave, duration                     : 42 ms (1.00 video frame)
Interleave, preload duration             : 500 ms

Скриншоты

                 

_________________
Other forum [Profile] [PM]
Display posts from previous:    
Reply to topic

The time now is: Today 16:58

All times are GMT + 3 Hours



You cannot post new topics in this forum
You cannot reply to topics in this forum
You cannot edit your posts in this forum
You cannot delete your posts in this forum
You cannot vote in polls in this forum
You cannot attach files in this forum
You cannot download files in this forum