Today is a free download without charge Download

Козёл отпущения / The Scapegoat (Чарльз Старридж) [2012 г., драма, HDTVRip]

Reply to topic
 
Author
Message

Jurchic ®

Longevity: 9 years 7 months

Posts: 42

Location: такое любопытство

Торрент-статистика

Post 17-Oct-2012 08:50

[Quote]

Козёл отпущения / The Scapegoat (2012) HDTVRip-- Год выпуска: 2012
Страна: Великобритания, Island Pictures
Жанр: драма
Продолжительность: 01:40:17
Перевод: Любительский (двухголосый закадровый)
Режиссер: Чарльз Старридж
Продюссер: Сара Бердсалл, Доминик Мингелла, Джули Кларк
Сценарий: Чарльз Старридж, Дафна Дю Морье
В ролях: Эндрю Скотт, Шеридан Смит, Джоди Мэй, Мэттью Риз, Айлин Эткинс, Фиби Николлс, Энтон Лессер, Пип Торренс, Сильви Тестю, Джулиан Уэдэм---Премьера в мире: 9 сентября 2012
--Описание: История разворачивается в 1952 году, когда Англия готовится к коронации. «Козёл отпущения» рассказывает историю двух очень разных людей, у которых есть кое-что общее — лицо.
В одном из лондонских пабов совершенно случайно встречаются аристократ, владелец стекольного завода Джонни Спэнс и потерявший работу учитель Джон Стэндинг. Возможно, обоюдного интереса никогда бы не возникло, если бы не одно поразительное обстоятельство - они похожи друг на друга, словно сиамские близнецы! Аристократу, уставшему от рутины руководства заводом и презирающего бесконечных своих родственников, захотелось хлебнуть свободы. И он делает всё, что бы следующее похмельное утро поменяло их местами. Никто даже подумать не мог, к каким последствиям приведет эта подмена! Экранизация классического одноименного романа Дафны дю Морье.---

Доп. информация:

Предупреждение: В фильме есть пара очень кратких моментов, когда изображение "сыпется" на пиксели.
Качество: HDTVRip
Формат: AVI
Видео кодек: DivX
Аудио кодек: MP3
Видео: 850 Кбит/сек, 720x400 (16:9), 25,000 кадров/сек, MPEG-4 Visual (DivX 5)
Аудио: 160 Кбит/сек, 44,1 КГц, 2 канала, MPEG Audio (VP3) (Joint stereo)
Релиз от: Raidho

MediaInfo:

Общее
Полное имя : D:\\\The Scapegoat.XviD.HDTVRip.avi
Формат : AVI
Формат/Информация : Audio Video Interleave
Размер файла : 732 Мбайт
Продолжительность : 1 ч. 40 м.
Общий поток : 1020 Кбит/сек
Программа кодирования : VirtualDubMod 1.5.10.2 (build 2540/release)
Библиотека кодирования : VirtualDubMod build 2540/release
Видео
Идентификатор : 0
Формат : MPEG-4 Visual
Профиль формата : Advanced [email protected]
Параметр BVOP формата : 2
Параметр QPel формата : Нет
Параметр GMC формата : Без точки перехода
Параметр матрицы формата : Default (MPEG)
Идентификатор кодека : DX50
Идентификатор кодека/Подсказка : DivX 5
Продолжительность : 1 ч. 40 м.
Битрейт : 850 Кбит/сек
Ширина : 720 пикселей
Высота : 400 пикселей
Соотношение сторон : 16:9
Частота кадров : 25,000 кадров/сек
Цветовое пространство : YUV
Субдискретизация насыщенности : 4:2:0
Битовая глубина : 8 бит
Тип развёртки : Прогрессивная
Метод сжатия : С потерями
Бит/(Пиксели*Кадры) : 0.118
Размер потока : 610 Мбайт (83%)
Библиотека кодирования : XviD 1.2.1 (UTC 2008-12-04)
Аудио
Идентификатор : 1
Формат : MPEG Audio
Версия формата : Version 1
Профиль формата : Layer 3
Режим : Joint stereo
Идентификатор кодека : 55
Идентификатор кодека/Подсказка : MP3
Продолжительность : 1 ч. 40 м.
Вид битрейта : Постоянный
Битрейт : 160 Кбит/сек
Каналы : 2 канала
Частота : 44,1 КГц
Метод сжатия : С потерями
Размер потока : 115 Мбайт (16%)
Выравнивание : Разделение по промежуткам
Продолжительность промежутка : 40 мс. (1,00 видеокадр)
Время предзагрузки промежутка : 500 мс.

Скриншоты:

                   
-
Other forum [Profile] [PM]
Display posts from previous:    
Reply to topic

The time now is: Today 03:52

All times are GMT + 3 Hours



You cannot post new topics in this forum
You cannot reply to topics in this forum
You cannot edit your posts in this forum
You cannot delete your posts in this forum
You cannot vote in polls in this forum
You cannot attach files in this forum
You cannot download files in this forum