Today is a free download without charge Download

Догма / Dogma (Кевин Смит) [1999 г., фэнтези, комедия, приключения, BDRip720p]

Reply to topic
 
Author
Message

Delia ®

Gender:

Longevity: 11 years

Posts: 1821

Торрент-статистика

Post 12-Mar-2011 12:25

[Quote]

ДогмаDogma Год выпуска: 1999
Страна: США
Жанр: фэнтези, комедия, приключения
Продолжительность: 02:08:11
Перевод: Профессиональный (полное дублирование)
Режиссер: Кевин Смит
Продюссер: Джон Гордон, Лаура Гринли, Скотт Мосье
Сценарий: Кевин Смит
Бюджет: $10 000 000
Премьера в мире: 21 мая 1999
В ролях: Бен Аффлек, Мэтт Дэймон, Линда Фиорентино, Сальма Хайек, Джейсон Ли, Джейсон Мьюз, Алан Рикман, Крис Рок, Дэн Этеридж, Кевин Смит
Описание: Два падших ангела, Локи и Бартлби, обреченные вечность торчать в штате Висконсин, узнали, что у них есть шанс вернуться в рай. Для этого нужно всего лишь воспользоваться ошибочной церковной католической догмой, провозглашенной кардиналом-новатором: каждый, прошедший через освященную арку в соборе в Нью-Джерси, получает отпущение грехов. Пройдя через нее, Локи и Бартлби получат прощение, далее им надо стать смертными, умереть и возвратиться в рай.Есть только одно но...
Качество: BDRip
Формат: MKV
Видео кодек: H.264
Аудио кодек: AC3
Видео: English, 4169 Кбит/сек, 1280*528 (2,40:1), в 23,976 кадр/сек, AVC
Аудио: Russian, 384 Кбит/сек, 48,0 КГц, 16 бит, 6 канала(ов), AC-3
Аудио:English, 320 Кбит/сек, 48,0 КГц, 16 бит, 6 канала(ов), AC-3| оригинал
Субтитры:Russian, English

Media Info:

Уникальный идентификатор : 181451713770904013995426206130296465247 (0x88825432DE15078A91B8F8342536275F)
Полное имя : E:\торрент\Dogma.1999.x264.BDRip 720p.mkv
Формат : Matroska
Размер файла : 4,37 Гбайт
Продолжительность : 2 ч. 8 м.
Общий поток : 4875 Кбит/сек
Дата кодирования : UTC 2011-03-12 05:14:29
Программа кодирования : mkvmerge v4.5.0 ('Speed of Light') built on Feb 1 2011 02:10:32
Библиотека кодирования : libebml v1.2.0 + libmatroska v1.1.0
Видео
Идентификатор : 1
Формат : AVC
Формат/Информация : Advanced Video Codec
Профиль формата : [email protected]
Параметр CABAC формата : Да
Параметр ReFrames формата : 12 кадры
Параметры GOP формата : M=6, N=32
Идентификатор кодека : V_MPEG4/ISO/AVC
Продолжительность : 2 ч. 8 м.
Битрейт : 4169 Кбит/сек
Ширина : 1280 пикс.
Высота : 528 пикс.
Соотношение сторон : 2,40:1
Частота кадров : 23,976 кадр/сек
Цветовое пространство : YUV
Подвыборка цветности : 4:2:0
Битовая глубина : 8 бит
Тип развёртки : Прогрессивная
Бит/(Пиксели*Кадры) : 0.257
Размер потока : 3,65 Гбайт (84%)
Библиотека кодирования : x264 core 114 r1913 5fd3dce
Настройки программы : cabac=1 / ref=12 / deblock=1:-1:-1 / analyse=0x3:0x133 / me=umh / subme=7 / psy=1 / psy_rd=1.00:0.15 / mixed_ref=1 / me_range=32 / chroma_me=1 / trellis=2 / 8x8dct=1 / cqm=0 / deadzone=21,11 / fast_pskip=0 / chroma_qp_offset=-5 / threads=6 / sliced_threads=0 / nr=0 / decimate=1 / interlaced=0 / constrained_intra=0 / bframes=5 / b_pyramid=2 / b_adapt=1 / b_bias=0 / direct=1 / weightb=0 / open_gop=0 / weightp=2 / keyint=250 / keyint_min=23 / scenecut=40 / intra_refresh=0 / rc_lookahead=40 / rc=2pass / mbtree=1 / bitrate=4169 / ratetol=1.0 / qcomp=0.80 / qpmin=5 / qpmax=51 / qpstep=4 / cplxblur=20.0 / qblur=0.5 / ip_ratio=1.40 / aq=1:1.00
Язык : English
Аудио #1
Идентификатор : 2
Формат : AC-3
Формат/Информация : Audio Coding 3
Расширение режима : CM (complete main)
Идентификатор кодека : A_AC3
Продолжительность : 2 ч. 8 м.
Вид битрейта : Постоянный
Битрейт : 384 Кбит/сек
Канал(ы) : 6 канала(ов)
Расположение каналов : Front: L C R, Side: L R, LFE
Частота : 48,0 КГц
Битовая глубина : 16 бит
Метод сжатия : С потерями
Размер потока : 352 Мбайт (8%)
Язык : Russian
Аудио #2
Идентификатор : 3
Формат : AC-3
Формат/Информация : Audio Coding 3
Расширение режима : CM (complete main)
Идентификатор кодека : A_AC3
Продолжительность : 2 ч. 8 м.
Вид битрейта : Постоянный
Битрейт : 320 Кбит/сек
Канал(ы) : 6 канала(ов)
Расположение каналов : Front: L C R, Side: L R, LFE
Частота : 48,0 КГц
Битовая глубина : 16 бит
Метод сжатия : С потерями
Размер потока : 293 Мбайт (7%)
Язык : English
Текст #1
Идентификатор : 4
Формат : UTF-8
Идентификатор кодека : S_TEXT/UTF8
Идентификатор кодека/Информация : UTF-8 Plain Text
Язык : Russian
Текст #2
Идентификатор : 5
Формат : UTF-8
Идентификатор кодека : S_TEXT/UTF8
Идентификатор кодека/Информация : UTF-8 Plain Text
Язык : English

Скриншоты

        
Релиз от :

_________________
Человек – это канат, натянутый между животным и сверхчеловеком, – канат над пропастью.
В человеке ценно то, что он мост, а не цель. Фридрих Ницше


Last edited by Delia on 2011-08-25 23:37; edited 1 time in total
Other forum [Profile] [PM]
Display posts from previous:    
Reply to topic

The time now is: Today 12:52

All times are GMT + 3 Hours



You cannot post new topics in this forum
You cannot reply to topics in this forum
You cannot edit your posts in this forum
You cannot delete your posts in this forum
You cannot vote in polls in this forum
You cannot attach files in this forum
You cannot download files in this forum