Today is a free download without charge Download

Я отменяю смерть (1-4 серии из 24) (2012) SATRip [Обновляемая]

Reply to topic
 
Author
Message

Koralina ®

Longevity: 10 years

Posts: 994

Location: Lithuania

Торрент-статистика

Post 16-Oct-2012 14:34

[Quote]

Я отменяю смерть (1-4 серии из 24) (2012) SATRip
«Дар, от которого нельзя отказаться»
- Русское название: Я отменяю смерть
Год выпуска: 2012
Производство: Россия, ТВ 3
Жанр: Драма, приключения
Режиссер: Денис Скворцов
Актеры: Елена Пирогова-Филиппова, Сергей Перегудов, Алексей Барабаш, Андрей Ургант, Стас Белозеров, Алена Артемова, Дмитрий Кузеняткин, Дарья Циберкина, Александр Белов, Инна Корнышева
Описание фильма:
Рита, главная героиня сериала, унаследовала от матери старинный браслет, который просто упал с руки погибшей женщины, при жизни же она его никогда не снимала. Девушка надела браслет и поняла, что теперь может слышать голоса умерших, вернее, их крики о помощи, а также перемещаться во времени, всего на сутки, но для нее этого достаточно, чтобы успеть предотвратить чью-то смерть. Рита быстро осознает, что браслет снять не удастся и от странного дара никуда не деться. Тогда она устраивается на работу в морг, чтобы быть ближе к тем, кому нужна ее помощь.
Но в мире все стремится к равновесию. И если есть тот, кто бездумно спасает всех, то где-то должен быть и тот, кто этому мешает. В жизни Риты появляется новый человек — Артур. Он тоже носит похожий браслет и тоже путешествует во времени, но его задача — помешать спасению. Таким образом, сохраняется баланс между добром и злом, между смертью и жизнью.
Все меняется, когда Рита и Артур понимают, что любят друг друга, а как быть вместе тем, у кого совершенно разные предназначения, когда у одного задача спасать, а у другого убивать?

Продолжительность: ~ 00:45:00 серия
Качество видео: SATRip
Видеокодек: XviD
Битрейт видео: ~ 1474 Кбит/сек
Размер кадра: 704x512
Аудио: Русский, МР3, 2 ch, 128 Кбит/с
Добавлена 4-ая серии, просьба перекачать торрент-файл

Внимание! Раздача ведётся путём добавления новых серий. Описание обновления торрента:

Внимание!
Раздача ведётся путём добавления новых серий; при каждом добавлении создётся новый торрент. Чтобы начать докачку новой серии, пользователям необходимо сделать следующее:
(1) остановить скачивание,
(2) удалить старый торрент у себя из клиента (старые серии удалять не надо),
(3) скачать новый торрент и запустить его у себя в клиенте вместо старого, при этом указать клиенту путь в старую папку куда и должно происходить скачивание новых серий.
Ваш клиент при этом должен произвести хеширование (проверку) старой папки (если не производит сам - помогите ему сделать это), и будет докачивать только те серии которых у вас ещё нет. Старые серии при этом не удаляются, а продолжают раздаваться!
Eсли вы уже удалили старые серии, то предотвратить повторную закачку старых серий можно, отжав галочку в соответсвующих местах при запуске нового торрента. По возможности, желательно не удалять старые серии как можно дольше чтобы релизёр не столько продолжал раздавать старые серии, а смог сконцентрироваться на новых.

MediaInfo

Общее
Полное имя : E:\Раздачи\Раздачи Обновляемые\Я отменяю смерть (2012) SATRip [Обновляемая]\Otmenjau Smert-01.avi
Формат : AVI
Формат/Информация : Audio Video Interleave
Размер файла : 530 Мбайт
Продолжительность : 45 м.
Общий поток : 1611 Кбит/сек
Программа кодирования : VirtualDubMod 1.5.10.2 (build 2540/release)
Библиотека кодирования : VirtualDubMod build 2540/release
Видео
Идентификатор : 0
Формат : MPEG-4 Visual
Профиль формата : Advanced [email protected]
Параметр BVOP формата : 2
Параметр QPel формата : Нет
Параметр GMC формата : Без точки перехода
Параметр матрицы формата : Default (H.263)
Режим смешивания : Сжатый битовый поток
Идентификатор кодека : XVID
Идентификатор кодека/Подсказка : XviD
Продолжительность : 45 м.
Битрейт : 1474 Кбит/сек
Ширина : 704 пикселя
Высота : 512 пикселей
Соотношение сторон : 1,375
Частота кадров : 25,000 кадров/сек
Цветовое пространство : YUV
Субдискретизация насыщенности : 4:2:0
Битовая глубина : 8 бит
Тип развёртки : Прогрессивная
Метод сжатия : С потерями
Бит/(Пиксели*Кадры) : 0.164
Размер потока : 485 Мбайт (91%)
Библиотека кодирования : XviD 58
Аудио
Идентификатор : 1
Формат : MPEG Audio
Версия формата : Version 1
Профиль формата : Layer 3
Режим : Joint stereo
Расширение режима : MS Stereo
Идентификатор кодека : 55
Идентификатор кодека/Подсказка : MP3
Продолжительность : 45 м.
Вид битрейта : Постоянный
Битрейт : 128 Кбит/сек
Каналы : 2 канала
Частота : 48,0 КГц
Метод сжатия : С потерями
Размер потока : 42,1 Мбайт (8%)
Выравнивание : Соединение по промежуткам
Продолжительность промежутка : 40 мс. (1,00 видеокадр)
Время предзагрузки промежутка : 504 мс.
Скриншоты:
         
         

_________________
Other forum [Profile] [PM]
Display posts from previous:    
Reply to topic

The time now is: Today 23:43

All times are GMT + 3 Hours



You cannot post new topics in this forum
You cannot reply to topics in this forum
You cannot edit your posts in this forum
You cannot delete your posts in this forum
You cannot vote in polls in this forum
You cannot attach files in this forum
You cannot download files in this forum