Today is a free download without charge Download

Слезы Стали / Tears of Steel (Йен Хьюберт) [2012 г., фантастика, BDRip]

Reply to topic
 
Author
Message

Jurchic ®

Longevity: 9 years 7 months

Posts: 42

Location: такое любопытство

Торрент-статистика

Post 15-Oct-2012 21:26

[Quote]

Слезы Стали / Tears of Steel (2012) [H.264/1080p-LQ] BDRip
«He just wanted to be awesome in space!»
«Он просто хотел быть потрясающим в космосе!»
-- Год выпуска: 2012
Страна: Нидерланды
Жанр: фантастика, короткометражный
Продолжительность: 00:12:14
Перевод: Любительский (одноголосый закадровый)
Субтитры: русские, английские
Режиссер: Йен Хьюберт
Продюссер: Ton Roosendaal
Сценарий: Йен Хьюберт
Бюджет: €300 000
Премьера в мире: 26 сентября 2012

В ролях: Джоди Бхе, Крис Хейли, Серджо Хасселбайнк, Дерек де Линт, Дэнис Реберген, Ванжа Рукавина, Роже Шиппер--Описание: Фильм рассказывает о группе военных и ученых, которые собрались в церкви "Oude Kerk" в Амстердаме, чтобы имитировать важное событие из прошлого, в отчаянной попытке спасти мир от разрушительных роботов.--Качество: BDRip
Формат: MKV
Видео кодек: MPEG4/AVC[H.264]
Аудио кодек: AC3 | AC3
Видео: 6023 Кбит/сек, 1920x800, 24,000 кадра/сек, AVC
Аудио#1: 448 Кбит/сек, 48,0 КГц, 6 каналов, AC-3 - Russian
Аудио#2: 448 Кбит/сек, 48,0 КГц, 6 каналов, AC-3 - English
Текст #1: UTF-8, Russian
Текст #2: UTF-8, English

MediaInfo:

Код:
Общее
Уникальный идентификатор                 : 223803670211109487610598314884804273776 (0xA85F04DDFE0956A997B84D79603E6670)
Полное имя                               : :\\Tears of Steel.mkv
Формат                                   : Matroska
Версия формата                           : Version 2
Размер файла                             : 618 Мбайт
Продолжительность                        : 12 м.
Общий поток                              : 7059 Кбит/сек
Дата кодирования                         : UTC 2012-10-14 16:45:24
Программа кодирования                    : mkvmerge v5.8.0 ('No Sleep / Pillow') built on Sep  2 2012 15:37:04
Библиотека кодирования                   : libebml v1.2.3 + libmatroska v1.3.0
Видео
Идентификатор                            : 1
Формат                                   : AVC
Формат/Информация                        : Advanced Video Codec
Профиль формата                          : [email protected]
Параметр CABAC формата                   : Нет
Параметр ReFrames формата                : 2 кадра
Параметр GOP формата                     : M=4, N=18
Режим смешивания                         : Header stripping
Идентификатор кодека                     : V_MPEG4/ISO/AVC
Продолжительность                        : 12 м.
Битрейт                                  : 6023 Кбит/сек
Номинальный битрейт                      : 6500 Кбит/сек
Ширина                                   : 1920 пикселей
Высота                                   : 800 пикселей
Соотношение сторон                       : 2,40:1
Режим частоты кадров                     : Постоянный
Частота кадров                           : 24,000 кадра/сек
Цветовое пространство                    : YUV
Субдискретизация насыщенности            : 4:2:0
Битовая глубина                          : 8 бит
Тип развёртки                            : Прогрессивная
Бит/(Пиксели*Кадры)                      : 0.163
Размер потока                            : 527 Мбайт (85%)
Библиотека кодирования                   : x264 core 122
Настройки программы                      : cabac=0 / ref=2 / deblock=1:0:0 / analyse=0x1:0x111 / me=dia / subme=6 / psy=0 / mixed_ref=0 / me_range=16 / chroma_me=1 / trellis=0 / 8x8dct=0 / cqm=0 / deadzone=21,11 / fast_pskip=1 / chroma_qp_offset=0 / threads=1 / sliced_threads=0 / nr=0 / decimate=1 / interlaced=0 / bluray_compat=0 / constrained_intra=0 / bframes=3 / b_pyramid=0 / b_adapt=1 / b_bias=0 / direct=3 / weightb=0 / open_gop=0 / weightp=2 / keyint=18 / keyint_min=10 / scenecut=40 / intra_refresh=0 / rc_lookahead=18 / rc=cbr / mbtree=0 / bitrate=6500 / ratetol=1.0 / qcomp=0.60 / qpmin=10 / qpmax=51 / qpstep=4 / vbv_maxrate=6500 / vbv_bufsize=1835 / nal_hrd=none / ip_ratio=1.40 / pb_ratio=1.30 / aq=1:1.00
Default                                  : Да
Forced                                   : Нет
Аудио #1
Идентификатор                            : 2
Формат                                   : AC-3
Формат/Информация                        : Audio Coding 3
Расширение режима                        : CM (complete main)
Параметр Endianness формата              : Big
Режим смешивания                         : Header stripping
Идентификатор кодека                     : A_AC3
Продолжительность                        : 12 м.
Вид битрейта                             : Постоянный
Битрейт                                  : 448 Кбит/сек
Каналы                                   : 6 каналов
Расположение каналов                     : Front: L C R, Side: L R, LFE
Частота                                  : 48,0 КГц
Битовая глубина                          : 16 бит
Метод сжатия                             : С потерями
Размер потока                            : 39,2 Мбайт (6%)
Язык                                     : Russian
Default                                  : Да
Forced                                   : Нет
Аудио #2
Идентификатор                            : 3
Формат                                   : AC-3
Формат/Информация                        : Audio Coding 3
Расширение режима                        : CM (complete main)
Параметр Endianness формата              : Big
Режим смешивания                         : Header stripping
Идентификатор кодека                     : A_AC3
Продолжительность                        : 12 м.
Вид битрейта                             : Постоянный
Битрейт                                  : 448 Кбит/сек
Каналы                                   : 6 каналов
Расположение каналов                     : Front: L C R, Side: L R, LFE
Частота                                  : 48,0 КГц
Битовая глубина                          : 16 бит
Метод сжатия                             : С потерями
Размер потока                            : 39,2 Мбайт (6%)
Язык                                     : English
Default                                  : Нет
Forced                                   : Нет
Текст #1
Идентификатор                            : 4
Формат                                   : UTF-8
Идентификатор кодека                     : S_TEXT/UTF8
Идентификатор кодека/Информация          : UTF-8 Plain Text
Язык                                     : Russian
Default                                  : Нет
Forced                                   : Нет
Текст #2
Идентификатор                            : 5
Формат                                   : UTF-8
Идентификатор кодека                     : S_TEXT/UTF8
Идентификатор кодека/Информация          : UTF-8 Plain Text
Язык                                     : English
Default                                  : Нет
Forced                                   : Нет

Скриншоты

         
Other forum [Profile] [PM]
Display posts from previous:    
Reply to topic

The time now is: Today 15:30

All times are GMT + 3 Hours



You cannot post new topics in this forum
You cannot reply to topics in this forum
You cannot edit your posts in this forum
You cannot delete your posts in this forum
You cannot vote in polls in this forum
You cannot attach files in this forum
You cannot download files in this forum