Today is a free download without charge Download

Заброшенный дом / The Abandoned (Начо Серда)(Ужасы, Триллер, Детектив) (2006) BDRip

Reply to topic
 
Author
Message

KirovSOFT ®

Gender:

Longevity: 9 years 2 months

Posts: 998

Location: Кировская область -Оричи

Торрент-статистика

Post 15-Oct-2012 21:02

[Quote]

Заброшенный дом / The Abandoned (2006) BDRip
Русское название: Заброшенный дом
Оригинальное название: The Abandoned
Год выпуска: 2006
Жанр: Ужасы, Триллер, Детектив
Описание фильма:
В поисках своих настоящих родителей американка Мэри приезжает в Россию и узнает, что получила в наследство дом от матери, умершей при таинственных обстоятельствах. В этом пустующем доме, затерянном в лесной глуши, она встречает человека по имени Николай, утверждающего, что он — ее брат-близнец, которого она никогда не знала.
Они понимают, что оказались здесь не случайно, и вскоре становятся свидетелями зловещих событий прошлого. Затаившийся в древнем доме ужас прорывается наружу, обволакивая их невидимыми путами и увлекая в лабиринты нескончаемого кошмара…
Режиссер: Начо Серда
Актеры: Анастасия Хилл, Карел Роден, Валентин Ганев, Параскева Джукелова, Карлос Рейг-Пласа, Калин Арсов, Светлана Смолева, Анна Панаетова, Йорданка Ангелова, Валентин Гошев
Продолжительность: 01:35:28
Перевод: Дублированный

Дата мировой премьеры: 11 сентября 2006
Дата российской премьеры: 5 апреля 2007, «Пирамида»
Видеокодек: Xvid
Битрейт видео: ~827 kbps
Размер кадра: 720x304
Качество видео: BDRip
Аудиокодек: AC3 2.0
Битрейт аудио: 192.00 kbps

MediaInfo

Общее
Полное имя : D:\The Abandoned.2006.BDRip.avi
Формат : AVI
Формат/Информация : Audio Video Interleave
Размер файла : 702 Мбайт
Продолжительность : 1 ч. 35 м.
Общий поток : 1028 Кбит/сек
Программа кодирования : VirtualDubModRus 1.5.10.2 (build 2542/release)
Библиотека кодирования : VirtualDubMod build 2542/release
Правообладатель : rip by Rulya74
Видео
Идентификатор : 0
Формат : MPEG-4 Visual
Профиль формата : Advanced [email protected]
Параметр BVOP формата : 2
Параметр QPel формата : Нет
Параметр GMC формата : Без точки перехода
Параметр матрицы формата : Выборочная
Режим смешивания : Сжатый битовый поток
Идентификатор кодека : XVID
Идентификатор кодека/Подсказка : XviD
Продолжительность : 1 ч. 35 м.
Битрейт : 827 Кбит/сек
Ширина : 720 пикселей
Высота : 304 пикселя
Соотношение сторон : 2,35:1
Частота кадров : 25,000 кадров/сек
Цветовое пространство : YUV
Субдискретизация насыщенности : 4:2:0
Битовая глубина : 8 бит
Тип развёртки : Прогрессивная
Метод сжатия : С потерями
Бит/(Пиксели*Кадры) : 0.151
Размер потока : 565 Мбайт (80%)
Библиотека кодирования : XviD 65
Аудио
Идентификатор : 1
Формат : AC-3
Формат/Информация : Audio Coding 3
Расширение режима : CM (complete main)
Идентификатор кодека : 2000
Продолжительность : 1 ч. 35 м.
Вид битрейта : Постоянный
Битрейт : 192 Кбит/сек
Каналы : 2 канала
Расположение каналов : Front: L R
Частота : 48,0 КГц
Битовая глубина : 16 бит
Метод сжатия : С потерями
Размер потока : 131 Мбайт (19%)
Выравнивание : Разделение по промежуткам
Продолжительность промежутка : 40 мс. (1,00 видеокадр)
Время предзагрузки промежутка : 500 мс.
Заголовок : Дублированный
Скриншоты:
         

_________________
Other forum [Profile] [PM]
Display posts from previous:    
Reply to topic

The time now is: Today 23:39

All times are GMT + 3 Hours



You cannot post new topics in this forum
You cannot reply to topics in this forum
You cannot edit your posts in this forum
You cannot delete your posts in this forum
You cannot vote in polls in this forum
You cannot attach files in this forum
You cannot download files in this forum