Today is a free download without charge Download

Ищу друга на конец света | Seeking a Friend for the End of the World (Лорин Скафария) [2012 г., фантастика, драма, мелодрама, комедия, BDRip, 1080p]

Reply to topic
 
Author
Message

BoxeR ®

Gender:

Longevity: 9 years

Posts: 423

Торрент-статистика

Post 13-Oct-2012 19:46

[Quote]

Ищу друга на конец света | Seeking a Friend for the End of the World
«Любовь подкралась незаметно...»
- Год выпуска: 2012
Страна: США Сингапур Малайзия Индонезия
Жанр: фантастика, драма, мелодрама, комедия
Продолжительность: 01:41:02 -Перевод:
Дублированный / R5
Оригинал-Субтитры: English-Режиссер: Лорин Скафария-В ролях: Стив Карелл, Кира Найтли, Адам Броди, Дерек Люк, Уильям Л. Питерсен, Роб Кордри, Мартин Шин, Тонита Кастро, Мелани Лински, Пэттон Освальт-Описание:
К Земле приближается огромный астероид. В такой момент большинство мужчин пустилось бы во все тяжкие. Но только не Додж. Он отправляется на поиски школьной подружки в компании сексуальной соседки Пенни.-Релиз группы: -Качество: BDRip
HD стандарт: 1080p
Формат: MKV
Видео кодек: x264
Аудио кодек: AC3 / DTS-Видео: 1920x818 at 23.976 fps, [url=mailto:[email protected]][email protected][/url], ~9713 kbps avg-Аудио:
48 kHz, AC3, 3/2 (L,C,R,l,r) + LFE ch, ~448.00 kbps avg |Дубляж, R5|
48 kHz, DTS, 3/2 (L,C,R,l,r) + LFE ch, ~1536.00 kbps avg
-

MI

Формат : Matroska
Версия формата : Version 2
Размер файла : 8,23 Гбайт
Продолжительность : 1 ч. 41 м.
Общий поток : 11,7 Мбит/сек
Название фильма : Respector
Дата кодирования : UTC 2012-10-11 05:26:30
Программа кодирования : mkvmerge v5.5.0 ('Healer') built on Apr 24 2012 23:47:03
Библиотека кодирования : libebml v1.2.3 + libmatroska v1.3.0
Видео
Идентификатор : 1
Формат : AVC
Формат/Информация : Advanced Video Codec
Профиль формата : [email protected]
Параметр CABAC формата : Да
Параметр ReFrames формата : 4 кадра
Идентификатор кодека : V_MPEG4/ISO/AVC
Битрейт : 9713 Кбит/сек
Ширина : 1920 пикселей
Высота : 818 пикселей
Соотношение сторон : 2,35:1
Режим частоты кадров : Переменный
Частота кадров в оригинале : 23,976 кадра/сек
Цветовое пространство : YUV
Субдискретизация насыщенности : 4:2:0
Битовая глубина : 8 бит
Тип развёртки : Прогрессивная
Бит/(Пиксели*Кадры) : 0.258
Заголовок : Seeking.a.Friend.for.the.End.of.the.World.2012
Библиотека кодирования : x264 core 125 r2208 d9d2288
Настройки программы : cabac=1 / ref=4 / deblock=1:-3:-3 / analyse=0x3:0x113 / me=umh / subme=10 / psy=1 / psy_rd=1.05:0.10 / mixed_ref=1 / me_range=32 / chroma_me=1 / trellis=2 / 8x8dct=1 / cqm=0 / deadzone=21,11 / fast_pskip=0 / chroma_qp_offset=-2 / threads=8 / lookahead_threads=1 / sliced_threads=0 / nr=0 / decimate=1 / interlaced=0 / bluray_compat=0 / constrained_intra=0 / bframes=4 / b_pyramid=2 / b_adapt=2 / b_bias=0 / direct=3 / weightb=1 / open_gop=0 / weightp=2 / keyint=250 / keyint_min=23 / scenecut=40 / intra_refresh=0 / rc=2pass / mbtree=0 / bitrate=9713 / ratetol=1.0 / qcomp=0.70 / qpmin=0 / qpmax=69 / qpstep=4 / cplxblur=20.0 / qblur=0.5 / ip_ratio=1.40 / pb_ratio=1.30 / aq=2:1.00
Язык : English
Default : Да
Forced : Нет
Аудио #1
Идентификатор : 2
Формат : AC-3
Формат/Информация : Audio Coding 3
Расширение режима : CM (complete main)
Параметр Endianness формата : Big
Идентификатор кодека : A_AC3
Продолжительность : 1 ч. 41 м.
Вид битрейта : Постоянный
Битрейт : 448 Кбит/сек
Каналы : 6 каналов
Расположение каналов : Front: L C R, Side: L R, LFE
Частота : 48,0 КГц
Битовая глубина : 16 бит
Метод сжатия : С потерями
Размер потока : 324 Мбайт (4%)
Язык : Russian
Default : Да
Forced : Да
Аудио #2
Идентификатор : 3
Формат : DTS
Формат/Информация : Digital Theater Systems
Идентификатор кодека : A_DTS
Продолжительность : 1 ч. 41 м.
Вид битрейта : Постоянный
Битрейт : 1510 Кбит/сек
Каналы : 6 каналов
Расположение каналов : Front: L C R, Side: L R, LFE
Частота : 48,0 КГц
Битовая глубина : 24 бит
Метод сжатия : С потерями
Размер потока : 1,07 Гбайт (13%)
Язык : English
Default : Нет
Forced : Нет
Текст
Идентификатор : 4
Формат : UTF-8
Идентификатор кодека : S_TEXT/UTF8
Идентификатор кодека/Информация : UTF-8 Plain Text
Язык : English
Default : Нет
Forced : Нет
Меню
00:00:00.000 : en:00:00:00.000
00:04:28.018 : en:00:04:28.018
00:10:30.547 : en:00:10:30.547
00:16:37.330 : en:00:16:37.330
00:21:35.044 : en:00:21:35.044
00:24:58.080 : en:00:24:58.080
00:31:22.589 : en:00:31:22.589
00:35:11.401 : en:00:35:11.401
00:40:37.685 : en:00:40:37.685
00:45:17.840 : en:00:45:17.840
00:50:00.623 : en:00:50:00.623
00:54:46.700 : en:00:54:46.700
01:01:06.413 : en:01:01:06.413
01:05:32.011 : en:01:05:32.011
01:13:14.181 : en:01:13:14.181
01:17:37.611 : en:01:17:37.611
01:21:50.280 : en:01:21:50.280
01:25:44.890 : en:01:25:44.890
01:28:24.966 : en:01:28:24.966
01:33:57.090 : en:01:33:57.090

Скриншоты

       
Other forum [Profile] [PM]
Display posts from previous:    
Reply to topic

The time now is: Today 02:06

All times are GMT + 3 Hours



You cannot post new topics in this forum
You cannot reply to topics in this forum
You cannot edit your posts in this forum
You cannot delete your posts in this forum
You cannot vote in polls in this forum
You cannot attach files in this forum
You cannot download files in this forum