Today is a free download without charge Download

Монстры / Monsters (2010) BDRip [720p]

Reply to topic
 
Author
Message

Delia ®

Gender:

Longevity: 9 years 6 months

Posts: 1821

Торрент-статистика

Post 11-Mar-2011 10:52

[Quote]

МонстрыMonsters Жанр: Фантастика, Триллер, Драма
Год: 2010
Cтрана: Великобритания
Студия: Vertigo Films
Продолжительность: 01:33:45
Перевод: Дублированный
Режиссер: Гарет Эдвардс /Gareth Edwards/
Cценарий: Гарет Эдвардс
Продюсер: Аллан Нибло, Джеймс Ричардсон, Ник Лав
В ролях:Уитни Эйбл, Скут МакНэйри, Кивон Кэйн, Марио Зунига Бенавидес, Аннали Джефферис, Джастин Халл, Рикки Каттер
Описание:Шесть лет назад, обнаружив признаки существования инопланетной жизни в Солнечной системе, NASA запустила для сбора образцов исследовательскую ракету. Возвращаясь на Землю, челнок потерпел крушение над Центральной Америкой. Довольно скоро на месте катастрофы стали появляться новые формы жизни, и половина Мексики была закрыта на карантин, получив статус "Зараженной зоны". В наши дни американские и мексиканские военные пытаются воспрепятствовать проникновению "тварей" за пределы их ареала обитания.
Качество: .BDRip.720p
Формат: mkv
Видео кодек:H.264
Аудио кодек: AC3
Видео: .mkv (H.264), 1280 x 720 (16:9) 24.000 fps, 6 089 kbps ,0.275 bit/pixel
Аудио:РусскийAC3 Dolby Digital; 448.00 kbps; 5.1 Ch; 48 kHz
Субтитры: Английские

MediaInfo

General
Complete name : Monstry.2010.RUS.BDRip.720p.h264.AC3.-HQ-ViDEO.mkv
Format : Matroska
File size : 4.37 GiB
Duration : 1h 33mn
Overall bit rate : 6 670 Kbps
Movie name : Monsters (2010)
Encoded date : UTC 2011-03-10 08:17:42
Writing application : mkvmerge v3.3.0 ('Language') built on Mar 24 2010 14:59:24
Writing library : libebml v0.8.0 + libmatroska v0.9.0
Video
ID : 1
Format : AVC
Format/Info : Advanced Video Codec
Format profile : [email protected]
Format settings, CABAC : Yes
Format settings, ReFrames : 6 frames
Codec ID : V_MPEG4/ISO/AVC
Duration : 1h 33mn
Bit rate mode : Variable
Bit rate : 6 089 Kbps
Width : 1 280 pixels
Height : 720 pixels
Display aspect ratio : 16:9
Frame rate : 24.000 fps
Color space : YUV
Chroma subsampling : 4:2:0
Bit depth : 8 bits
Scan type : Progressive
Bits/(Pixel*Frame) : 0.275
Stream size : 3.99 GiB (91%)
Title : Encoded by GYN
Audio
ID : 2
Format : AC-3
Format/Info : Audio Coding 3
Mode extension : CM (complete main)
Codec ID : A_AC3
Duration : 1h 33mn
Bit rate mode : Constant
Bit rate : 448 Kbps
Channel(s) : 6 channels
Channel positions : Front: L C R, Side: L R, LFE
Sampling rate : 48.0 KHz
Bit depth : 16 bits
Compression mode : Lossy
Stream size : 300 MiB (7%)
Title : DUB
Language : Russian
Text
ID : 3
Format : UTF-8
Codec ID : S_TEXT/UTF8
Codec ID/Info : UTF-8 Plain Text
Language : English

Скриншоты

    

_________________
Человек – это канат, натянутый между животным и сверхчеловеком, – канат над пропастью.
В человеке ценно то, что он мост, а не цель. Фридрих Ницше


Last edited by Delia on 2011-03-11 10:52; edited 1 time in total
Other forum [Profile] [PM]

Dracula

Longevity: 6 years

Posts: 10636

Торрент-статистика

Post 11-Mar-2011 14:11 (after 3 hours)

Топик был перенесен из форума Фильмы 2006-2010 в форум Зарубежное кино (HD Video)

Vildanoff
 
Display posts from previous:    
Reply to topic

The time now is: Today 08:25

All times are GMT + 3 Hours



You cannot post new topics in this forum
You cannot reply to topics in this forum
You cannot edit your posts in this forum
You cannot delete your posts in this forum
You cannot vote in polls in this forum
You cannot attach files in this forum
You cannot download files in this forum