Today is a free download without charge Download

(Symphonic, Progressive Power Metal) Serenity - Lionheart (Digipack, 2CD) - 2017 [FLAC, image +.cue, lossless]

Reply to topic
 
Author
Message

sergej644 ®

Gender:

Longevity: 7 years

Posts: 631

Торрент-статистика

Post 27-Jan-2018 18:45

[Quote]

-Serenity - Lionheart (Digipack, 2CD)--
Год издания: 2017
Страна: Austria
Жанр: Symphonic, Progressive Power Metal
Продолжительность: 01:16:26-Лейбл издания: Napalm Records Handels GmbH
Страна-выпуска диска: Germany
Номер по каталогу: NPR 721 DP-Формат: FLAC
Битрейт аудио: Lossless
Тип рипа: image +.cue
Наличие сканов в содержимом раздачи: да
-

Трэклист

CD 1 | 00;54;45


01. Deus Lo Vult (1:52)
02. United (5:34)
03. Lionheart (4:38)
04. Hero (4:25)
05. Rising High (3:31)
06. Heaven (4:09)
07. King's Landing (2:11)
08. Eternal Victory (4:41)
09. Stand and Fight (4:26)
10. The Fortress (of Blood and Sand) (4:27)
11. Empire (4:28)
12. My Fantasy (4:46)
13. The Final Crusade (5:38)

CD 2 - Bonus CD | 00:21:41


01. Engraved Within (Piano Version) (4:30)
02. When Canvas Starts To Burn (Piano Version) (3:35)
03. Coldness Kills (Piano Version) (4:54)
04. To India's Shores (Death & Legacy) (4:36)
05. Youngest Of Widows (Death & Legacy) (4:06)
-

Лог создания рипа

CD 1

Код:
Exact Audio Copy V1.1 from 23. June 2015
EAC extraction logfile from 26. October 2017, 11:10
Serenity / Lionheart
Used drive  : ATAPI   DVD A  DH16ABSH   Adapter: 2  ID: 0
Read mode               : Secure
Utilize accurate stream : Yes
Defeat audio cache      : Yes
Make use of C2 pointers : No
Read offset correction                      : 6
Overread into Lead-In and Lead-Out          : No
Fill up missing offset samples with silence : Yes
Delete leading and trailing silent blocks   : No
Null samples used in CRC calculations       : Yes
Used interface                              : Installed external ASPI interface
Used output format              : User Defined Encoder
Selected bitrate                : 1024 kBit/s
Quality                         : High
Add ID3 tag                     : No
Command line compressor         : C:\Program Files (x86)\Exact Audio Copy\FLAC\FLAC.EXE
Additional command line options : -6 -V -T "ARTIST=%artist%" -T "TITLE=%title%" -T "ALBUM=%albumtitle%" -T "DATE=%year%" -T "TRACKNUMBER=%tracknr%" -T "GENRE=%genre%" -T "COMMENT=%comment%" -T "BAND=%albuminterpret%" -T "ALBUMARTIST=%albuminterpret%" -T "COMPOSER=%composer%" %haslyrics%--tag-from-file=LYRICS="%lyricsfile%"%haslyrics% -T "DISCNUMBER=%cdnumber%" -T "TOTALDISCS=%totalcds%" -T "TOTALTRACKS=%numtracks%" %hascover%--picture="%coverfile%"%hascover% %source% -o %dest%
TOC of the extracted CD
     Track |   Start  |  Length  | Start sector | End sector
    ---------------------------------------------------------
        1  |  0:00.00 |  1:52.28 |         0    |     8427
        2  |  1:52.28 |  5:33.40 |      8428    |    33442
        3  |  7:25.68 |  4:38.08 |     33443    |    54300
        4  | 12:04.01 |  4:24.63 |     54301    |    74163
        5  | 16:28.64 |  3:31.31 |     74164    |    90019
        6  | 20:00.20 |  4:09.30 |     90020    |   108724
        7  | 24:09.50 |  2:10.64 |    108725    |   118538
        8  | 26:20.39 |  4:41.20 |    118539    |   139633
        9  | 31:01.59 |  4:25.39 |    139634    |   159547
       10  | 35:27.23 |  4:26.62 |    159548    |   179559
       11  | 39:54.10 |  4:27.39 |    179560    |   199623
       12  | 44:21.49 |  4:45.39 |    199624    |   221037
       13  | 49:07.13 |  5:37.61 |    221038    |   246373
Range status and errors
Selected range
     Filename E:\toydollsru\Serenity - Lionheart.wav
     Peak level 99.5 %
     Extraction speed 8.1 X
     Range quality 99.9 %
     Test CRC 6FD0087C
     Copy CRC 6FD0087C
     Copy OK
No errors occurred
AccurateRip summary
Track  1  not present in database
Track  2  not present in database
Track  3  not present in database
Track  4  not present in database
Track  5  not present in database
Track  6  not present in database
Track  7  not present in database
Track  8  not present in database
Track  9  not present in database
Track 10  not present in database
Track 11  not present in database
Track 12  not present in database
Track 13  not present in database
None of the tracks are present in the AccurateRip database
End of status report
---- CUETools DB Plugin V2.1.6
[CTDB TOCID: 2n6mqWDRKbf5lHYvh1mpOCJjK1M-] found
Submit result: 2n6mqWDRKbf5lHYvh1mpOCJjK1M- has been confirmed
Track | CTDB Status
  1   | (1/1) Accurately ripped
  2   | (1/1) Accurately ripped
  3   | (1/1) Accurately ripped
  4   | (1/1) Accurately ripped
  5   | (1/1) Accurately ripped
  6   | (1/1) Accurately ripped
  7   | (1/1) Accurately ripped
  8   | (1/1) Accurately ripped
  9   | (1/1) Accurately ripped
10   | (1/1) Accurately ripped
11   | (1/1) Accurately ripped
12   | (1/1) Accurately ripped
13   | (1/1) Accurately ripped

CD 2

Код:
Exact Audio Copy V1.1 from 23. June 2015
EAC extraction logfile from 26. October 2017, 11:25
Serenity / Lionheart (Bonus CD)
Used drive  : ATAPI   DVD A  DH16ABSH   Adapter: 2  ID: 0
Read mode               : Secure
Utilize accurate stream : Yes
Defeat audio cache      : Yes
Make use of C2 pointers : No
Read offset correction                      : 6
Overread into Lead-In and Lead-Out          : No
Fill up missing offset samples with silence : Yes
Delete leading and trailing silent blocks   : No
Null samples used in CRC calculations       : Yes
Used interface                              : Installed external ASPI interface
Used output format              : User Defined Encoder
Selected bitrate                : 1024 kBit/s
Quality                         : High
Add ID3 tag                     : No
Command line compressor         : C:\Program Files (x86)\Exact Audio Copy\FLAC\FLAC.EXE
Additional command line options : -6 -V -T "ARTIST=%artist%" -T "TITLE=%title%" -T "ALBUM=%albumtitle%" -T "DATE=%year%" -T "TRACKNUMBER=%tracknr%" -T "GENRE=%genre%" -T "COMMENT=%comment%" -T "BAND=%albuminterpret%" -T "ALBUMARTIST=%albuminterpret%" -T "COMPOSER=%composer%" %haslyrics%--tag-from-file=LYRICS="%lyricsfile%"%haslyrics% -T "DISCNUMBER=%cdnumber%" -T "TOTALDISCS=%totalcds%" -T "TOTALTRACKS=%numtracks%" %hascover%--picture="%coverfile%"%hascover% %source% -o %dest%
TOC of the extracted CD
     Track |   Start  |  Length  | Start sector | End sector
    ---------------------------------------------------------
        1  |  0:00.00 |  4:30.31 |         0    |    20280
        2  |  4:30.31 |  3:34.44 |     20281    |    36374
        3  |  8:05.00 |  4:54.20 |     36375    |    58444
        4  | 12:59.20 |  4:36.02 |     58445    |    79146
        5  | 17:35.22 |  4:06.01 |     79147    |    97597
Range status and errors
Selected range
     Filename E:\toydollsru\Serenity - Lionheart (Bonus CD).wav
     Peak level 98.2 %
     Extraction speed 6.7 X
     Range quality 100.0 %
     Test CRC 73394A2C
     Copy CRC 73394A2C
     Copy OK
No errors occurred
AccurateRip summary
Track  1  not present in database
Track  2  not present in database
Track  3  not present in database
Track  4  not present in database
Track  5  not present in database
None of the tracks are present in the AccurateRip database
End of status report

Индексная карта (non-compilant .cue)

CD 1

Код:
REM GENRE "Symphonic Power Metal"
REM DATE 2017
REM DISCID B50CD40D
REM COMMENT "ExactAudioCopy v1.1"
PERFORMER "Serenity"
TITLE "Lionheart"
FILE "Serenity - Lionheart.flac" WAVE
  TRACK 01 AUDIO
    TITLE "Deus Lo Vult"
    PERFORMER "Serenity"
    FLAGS DCP
    INDEX 01 00:00:00
  TRACK 02 AUDIO
    TITLE "United"
    PERFORMER "Serenity"
    FLAGS DCP
    INDEX 01 01:52:28
  TRACK 03 AUDIO
    TITLE "Lionheart"
    PERFORMER "Serenity"
    FLAGS DCP
    INDEX 01 07:25:68
  TRACK 04 AUDIO
    TITLE "Hero"
    PERFORMER "Serenity"
    FLAGS DCP
    INDEX 01 12:04:01
  TRACK 05 AUDIO
    TITLE "Rising High"
    PERFORMER "Serenity"
    FLAGS DCP
    INDEX 01 16:28:64
  TRACK 06 AUDIO
    TITLE "Heaven"
    PERFORMER "Serenity"
    FLAGS DCP
    INDEX 01 20:00:20
  TRACK 07 AUDIO
    TITLE "King's Landing"
    PERFORMER "Serenity"
    FLAGS DCP
    INDEX 01 24:09:50
  TRACK 08 AUDIO
    TITLE "Eternal Victory"
    PERFORMER "Serenity"
    FLAGS DCP
    INDEX 01 26:20:39
  TRACK 09 AUDIO
    TITLE "Stand and Fight"
    PERFORMER "Serenity"
    FLAGS DCP
    INDEX 01 31:01:59
  TRACK 10 AUDIO
    TITLE "The Fortress (of Blood and Sand)"
    PERFORMER "Serenity"
    FLAGS DCP
    INDEX 01 35:27:23
  TRACK 11 AUDIO
    TITLE "Empire"
    PERFORMER "Serenity"
    FLAGS DCP
    INDEX 01 39:54:10
  TRACK 12 AUDIO
    TITLE "My Fantasy"
    PERFORMER "Serenity"
    FLAGS DCP
    INDEX 01 44:21:49
  TRACK 13 AUDIO
    TITLE "The Final Crusade"
    PERFORMER "Serenity"
    FLAGS DCP
    INDEX 01 49:07:13

CD 2

Код:
REM GENRE "Symphonic Power Metal"
REM DATE 2017
REM DISCID 3D051505
REM COMMENT "ExactAudioCopy v1.1"
PERFORMER "Serenity"
TITLE "Lionheart (Bonus CD)"
FILE "Serenity - Lionheart (Bonus CD).flac" WAVE
  TRACK 01 AUDIO
    TITLE "Engraved Within (Piano Version)"
    PERFORMER "Serenity"
    FLAGS DCP
    INDEX 01 00:00:00
  TRACK 02 AUDIO
    TITLE "When Canvas Starts To Burn (Piano Version)"
    PERFORMER "Serenity"
    FLAGS DCP
    INDEX 00 04:29:37
    INDEX 01 04:30:31
  TRACK 03 AUDIO
    TITLE "Coldness Kills (Piano Version)"
    PERFORMER "Serenity"
    FLAGS DCP
    INDEX 00 08:03:65
    INDEX 01 08:05:00
  TRACK 04 AUDIO
    TITLE "To India's Shores (Death & Legacy)"
    PERFORMER "Serenity"
    FLAGS DCP
    INDEX 00 12:57:20
    INDEX 01 12:59:20
  TRACK 05 AUDIO
    TITLE "Youngest Of Widows (Death & Legacy)"
    PERFORMER "Serenity"
    FLAGS DCP
    INDEX 00 17:33:71
    INDEX 01 17:35:22

для ознакомления:


--

_________________
Other forum [Profile] [PM]
Similar theme
Forum Topic Author Torrent Replies Last Post
./templates/default/images/folder_dl.gif Rock (Symphonic Prog) [WEB] IZZ - Everlasting Instant - 2015, FLAC (tracks), lossless Omen
0 | 1

0 | 715

9

2015-05-05 12:55
Omen Latest
./templates/default/images/folder_dl.gif Rock (Symphonic Rock, Progressive Rock) Дискография Trans-Siberian Orchestra (9 релизов) - 1996-2015, MP3 (tracks), 320 kbps Omen
2 | 0

0 | 2108

13

2015-11-13 15:00
Omen Latest
./templates/default/images/folder_dl.gif Metal (Symphonic Power Metal) Everfrost - Blue Eyed Emotion - 2015, MP3, 320 kbps Omen
0 | 2

0 | 1002

10

2015-12-29 15:00
Omen Latest
./templates/default/images/folder_dl.gif Rock (Symphonic prog) [CD] Eden - Erwartung - 2015, FLAC (image+.cue), lossless Omen
1 | 0

0 | 1124

6

2016-08-06 01:01
Omen Latest
./templates/default/images/folder_dl.gif Music from other genres (LOSSLESS) (Symphonic, Heavy, Power Metal) VA - Heavy Metal Collections Vol. 12 (3CD) - 2019 [FLAC, tracks, Lossless] sergej644
1 | 0

0 | 1425

2

2019-02-02 21:46
sergej644 Latest
Display posts from previous:    
Reply to topic

The time now is: Today 10:29

All times are GMT + 3 Hours



You cannot post new topics in this forum
You cannot reply to topics in this forum
You cannot edit your posts in this forum
You cannot delete your posts in this forum
You cannot vote in polls in this forum
You cannot attach files in this forum
You cannot download files in this forum