Today is a free download without charge Download

Президент Линкольн: Охотник на вампиров / Abraham Lincoln: Vampire Hunter (Тимур Бекмамбетов) [2012 г., ужасы, фэнтези, боевик, триллер, BDRip 720p]

Reply to topic
 
Author
Message

BoxeR ®

Gender:

Longevity: 9 years

Posts: 423

Торрент-статистика

Post 13-Oct-2012 10:35

[Quote]

Президент Линкольн: Охотник на вампиров / Abraham Lincoln: Vampire Hunter-Год выпуска: 2012
Страна: США
Жанр: ужасы, фэнтези, боевик, триллер
Продолжительность: 01:45:00
Перевод: Профессиональный (полное дублирование)
Cубтитры: русские (форсированные, полные), украинские (форсированные, полные), английские-В ролях: Бенджамин Уокер, Доминик Купер, Энтони Маки, Мэри Элизабет Уинстэд, Руфус Сьюэлл, МартонЧокаш, Джимми Симпсон, Джозеф Моул, Робин МакЛиви, Эрин Уоссон
Режиссёр: Тимур Бекмамбетов-Описание: Сюжет фильма раскрывает тайную жизнь Величайшего Президента Америки Авраама Линкольна — любящего мужа и отца днем и беспощадного убийцу вампиров ночью. Армия кровопийц, которым он бросил вызов, растет с каждым днем. Сможет ли президент великой страны противостоять полчищам вампиров и спасти свою семью и народ от неминуемой гибели?..-Релиз от: IRONCLUB
Качество: BDRip 720p
Формат: MKV
Аудио кодек: DTS, AC3
Видео: 1280x534 (2.35:1), 4787 kb/s, 23.976 fps
Аудио #1: DTS, 6 ch, 755 Kbps, Русский
Аудио #2: DTS, 6 ch, 1510 Kbps, Английский
Аудио #3: AC3, 2 ch, 224 Kbps, Английский (комментарии)-

MI

D:\HDFILMS\Beyond.The.Darkness.1979.720p.BDRip.2xRus.Eng.mkv
General
Complete name : D:\HDFILMS\Beyond.The.Darkness.1979.720p.BDRip.2xRus.Eng.mkv
Format : Matroska
File size : 4.55 GiB
Duration : 1h 33mn
Overall bit rate : 6 949 Kbps
Encoded date : UTC 2012-03-09 07:11:01
Writing application : mkvmerge v5.2.0 ('I can't explain') built on Dec 18 2011 18:12:03
Writing library : libebml v1.2.3 + libmatroska v1.3.0
Video #1
ID : 1
Format : AVC
Format/Info : Advanced Video Codec
Format profile : [email protected]
Format settings, CABAC : Yes
Format settings, ReFrames : 9 frames
Format settings, GOP : M=1, N=32
Muxing mode : Container [email protected]
Codec ID : V_MPEG4/ISO/AVC
Duration : 1h 33mn
Bit rate : 6 118 Kbps
Width : 1 280 pixels
Height : 720 pixels
Display aspect ratio : 16:9
Frame rate : 23.976 fps
Color space : YUV
Chroma subsampling : 4:2:0
Bit depth : 8 bits
Scan type : Progressive
Bits/(Pixel*Frame) : 0.277
Stream size : 3.92 GiB (86%)
Title : Beyond.The.Darkness.1979.BluRay.720p.DTS.X264-CHD
Writing library : x264 core 115 r2008 4c552d8
Encoding settings : cabac=1 / ref=9 / deblock=1:-3:-3 / analyse=0x3:0x113 / me=umh / subme=10 / psy=1 / psy_rd=1.10:0.15 / mixed_ref=1 /
me_range=32 / chroma_me=1 / trellis=2 / 8x8dct=1 / cqm=2 / deadzone=21,11 / fast_pskip=0 / chroma_qp_offset=-2 / threads=32 / sliced_threads=0 / nr=0 /
decimate=1 / interlaced=0 / bluray_compat=0 / constrained_intra=0 / bframes=6 / b_pyramid=2 / b_adapt=2 / b_bias=0 / direct=3 / weightb=1 / open_gop=0
/ weightp=2 / keyint=250 / keyint_min=23 / scenecut=40 / intra_refresh=0 / rc_lookahead=60 / rc=2pass / mbtree=1 / bitrate=6118 / ratetol=1.0 /
qcomp=0.60 / qpmin=1 / qpmax=63 / qpstep=4 / cplxblur=20.0 / qblur=0.5 / vbv_maxrate=40000 / vbv_bufsize=30000 / nal_hrd=none / ip_ratio=1.40 /
aq=1:0.80
Language : English
Audio #2
ID : 2
Format : AC-3
Format/Info : Audio Coding 3
Mode extension : CM (complete main)
Muxing mode : Header stripping
Codec ID : A_AC3
Duration : 1h 33mn
Bit rate mode : Constant
Bit rate : 192 Kbps
Channel(s) : 2 channels
Channel positions : Front: L R
Sampling rate : 48.0 KHz
Bit depth : 16 bits
Stream size : 129 MiB (3%)
Title : Lebedev AC3 2.0 192 kbps
Language : Russian
Audio #3
ID : 3
Format : AC-3
Format/Info : Audio Coding 3
Mode extension : CM (complete main)
Muxing mode : Header stripping
Codec ID : A_AC3
Duration : 1h 33mn
Bit rate mode : Constant
Bit rate : 192 Kbps
Channel(s) : 2 channels
Channel positions : Front: L R
Sampling rate : 48.0 KHz
Bit depth : 16 bits
Stream size : 129 MiB (3%)
Title : Alekseev AC3 2.0 192 kbps
Language : Russian
Audio #4
ID : 4
Format : AC-3
Format/Info : Audio Coding 3
Mode extension : CM (complete main)
Muxing mode : Header stripping
Codec ID : A_AC3
Duration : 1h 33mn
Bit rate mode : Constant
Bit rate : 448 Kbps
Channel(s) : 2 channels
Channel positions : Front: L R
Sampling rate : 48.0 KHz
Bit depth : 16 bits
Stream size : 301 MiB (6%)
Title : Original AC3 2.0 448 kbps
Language : English
Text #5
ID : 5
Format : UTF-8
Codec ID : S_TEXT/UTF8
Codec ID/Info : UTF-8 Plain Text
Language : English

Скриншоты

         
Other forum [Profile] [PM]
Display posts from previous:    
Reply to topic

The time now is: Today 10:52

All times are GMT + 3 Hours



You cannot post new topics in this forum
You cannot reply to topics in this forum
You cannot edit your posts in this forum
You cannot delete your posts in this forum
You cannot vote in polls in this forum
You cannot attach files in this forum
You cannot download files in this forum