Today is a free download without charge Download

Призрак оперы / The Phantom of the Opera (Джоэл Шумахер) [2004 г., мюзикл, триллер, мелодрама,BDRip 1080p]

Reply to topic
 
Author
Message

Delia ®

Gender:

Longevity: 9 years 1 month

Posts: 1821

Торрент-статистика

Post 10-Mar-2011 21:10

[Quote]

Призрак оперыThe Phantom of the Opera Год выпуска: 2004
Страна: США, Великобритания
Жанр: мюзикл, триллер, мелодрама
Продолжительность: 02:21:04
Перевод: Профессиональный (полное дублирование)
Режиссер: Джоэл Шумахер
Продюссер: Джефф Абберли, Остин Шоу, Джулия Блэкман
Сценарий: Гастон Леру, Эндрю Ллойд Уэббер, Джоэл Шумахер
Бюджет: $70 000 000
Премьера в мире: 9 декабря 2004

В ролях: Джерард Батлер, Эмми Россам, Патрик Уилсон, Миранда Ричардсон, Минни Драйвер, Киаран Хайндс, Саймон Кэллоу, Виктор МакГуайр, Дженнифер Эллисон, Мюррэй Мелвин
Описание: Таинственный голос взывает к молодой оперной певице Кристине из мрачных недр величественной Парижской оперы. Лишь один человек в труппе знает, что невидимый покровитель и наставник Кристины, наводящий ужас на артистов, — обезображенный гений музыки, влюбленный в юную красавицу. Призрак в маске сделает все, чтобы она стала примадонной сцены, однако у него есть властный соперник — богатый виконт Рауль де Шаньи. Став пленницей любовного треугольника, Кристина должна сделать выбор. Но страсти, что вскружили голову, свирепая ревность и безумная любовь уже вынесли возлюбленным свой немилосердный приговор...
Качество:BDRip 1080p
Формат: MKV
Видео кодек: H.264
Аудио кодек: AC3
Видео: English, 3667 Кбит/сек, 1920*800 (2,40:1), в 23,976 кадр/сек, AVC
Аудио: Russian, 448 Кбит/сек, 48,0 КГц, 16 бит, 6 канала(ов), AC-3(только диалоги)
Аудио:English, 320 Кбит/сек, 48,0 КГц, 16 бит, 6 канала(ов), AC-3
Субтитры: Russian VobSub (текст арий)

Media Info:

Общее
Уникальный идентификатор : 181071293537020048883592737611929917841 (0x883910087769533C8A919C004C049991)
Полное имя : E:\торрент\The Phantom of the Opera(2004) BDRip 1080p.mkv
Формат : Matroska
Размер файла : 4,37 Гбайт
Продолжительность : 2 ч. 21 м.
Общий поток : 4436 Кбит/сек
Дата кодирования : UTC 2011-03-10 16:47:45
Программа кодирования : mkvmerge v4.5.0 ('Speed of Light') built on Feb 1 2011 02:10:32
Библиотека кодирования : libebml v1.2.0 + libmatroska v1.1.0
Видео
Идентификатор : 1
Формат : AVC
Формат/Информация : Advanced Video Codec
Профиль формата : [email protected]
Параметр CABAC формата : Да
Параметр ReFrames формата : 12 кадры
Идентификатор кодека : V_MPEG4/ISO/AVC
Продолжительность : 2 ч. 21 м.
Битрейт : 3667 Кбит/сек
Ширина : 1920 пикс.
Высота : 800 пикс.
Соотношение сторон : 2,40:1
Частота кадров : 23,976 кадр/сек
Цветовое пространство : YUV
Подвыборка цветности : 4:2:0
Битовая глубина : 8 бит
Тип развёртки : Прогрессивная
Бит/(Пиксели*Кадры) : 0.100
Размер потока : 3,53 Гбайт (81%)
Библиотека кодирования : x264 core 114 r1913 5fd3dce
Настройки программы : cabac=1 / ref=12 / deblock=1:-3:-3 / analyse=0x3:0x133 / me=umh / subme=7 / psy=1 / psy_rd=1.00:0.15 / mixed_ref=1 / me_range=32 / chroma_me=1 / trellis=2 / 8x8dct=1 / cqm=0 / deadzone=21,11 / fast_pskip=0 / chroma_qp_offset=-3 / threads=6 / sliced_threads=0 / nr=0 / decimate=1 / interlaced=0 / constrained_intra=0 / bframes=5 / b_pyramid=2 / b_adapt=1 / b_bias=0 / direct=1 / weightb=0 / open_gop=0 / weightp=2 / keyint=250 / keyint_min=23 / scenecut=40 / intra_refresh=0 / rc_lookahead=40 / rc=2pass / mbtree=1 / bitrate=3667 / ratetol=1.0 / qcomp=0.80 / qpmin=10 / qpmax=51 / qpstep=4 / cplxblur=20.0 / qblur=0.5 / ip_ratio=1.40 / aq=1:1.00
Язык : English
Аудио #1
Идентификатор : 2
Формат : AC-3
Формат/Информация : Audio Coding 3
Расширение режима : CM (complete main)
Идентификатор кодека : A_AC3
Продолжительность : 2 ч. 21 м.
Вид битрейта : Постоянный
Битрейт : 448 Кбит/сек
Канал(ы) : 6 канала(ов)
Расположение каналов : Front: L C R, Side: L R, LFE
Частота : 48,0 КГц
Битовая глубина : 16 бит
Метод сжатия : С потерями
Размер потока : 452 Мбайт (10%)
Язык : Russian
Аудио #2
Идентификатор : 3
Формат : AC-3
Формат/Информация : Audio Coding 3
Расширение режима : CM (complete main)
Идентификатор кодека : A_AC3
Продолжительность : 2 ч. 21 м.
Вид битрейта : Постоянный
Битрейт : 320 Кбит/сек
Канал(ы) : 6 канала(ов)
Расположение каналов : Front: L C R, Side: L R, LFE
Частота : 48,0 КГц
Битовая глубина : 16 бит
Метод сжатия : С потерями
Размер потока : 323 Мбайт (7%)
Язык : English
Текст
Идентификатор : 4
Формат : VobSub
Режим смешивания : zlib
Идентификатор кодека : S_VOBSUB
Идентификатор кодека/Информация : The same subtitle format used on DVDs
Язык : Russian

Скриншоты:

        
Релиз от :

_________________
Человек – это канат, натянутый между животным и сверхчеловеком, – канат над пропастью.
В человеке ценно то, что он мост, а не цель. Фридрих Ницше


Last edited by Delia on 2011-08-25 23:30; edited 2 times in total
Other forum [Profile] [PM]
Similar theme
Forum Topic Author Torrent Replies Last Post
./templates/default/images/folder_dl.gif Фантастика, фэнтези, ужасы, мистика Алексей Чумаков | В поисках призраков (2015) [FB2] Omen
1 | 0

0 | 778

1

2015-03-16 18:55
Omen Latest
./templates/default/images/folder_dl.gif Зарубежное кино Паранормальное явление 5: Призраки / Paranormal Activity: The Ghost Dimension (Грегори Плоткин / Gregory Plotkin) [2015, США, Ужасы, BDRip 1080p] [Театральная версия] Dub + Sub Rus, Eng + Original Eng Omen
1 | 0

0 | 774

10

2016-02-11 00:33
Omen Latest
Display posts from previous:    
Reply to topic

The time now is: Today 19:12

All times are GMT + 3 Hours



You cannot post new topics in this forum
You cannot reply to topics in this forum
You cannot edit your posts in this forum
You cannot delete your posts in this forum
You cannot vote in polls in this forum
You cannot attach files in this forum
You cannot download files in this forum