Today is a free download without charge Download

Ищу друга на конец света / Seeking a Friend for the End of the World (Лорин Скафария) [2012 г., фантастика, драма, мелодрама, комедия, BDRip720p]

Reply to topic
 
Author
Message

sassad ®

Gender:

Longevity: 10 years

Posts: 1214

Location: Галич

Торрент-статистика

Post 10-Oct-2012 18:40

[Quote]

Ищу друга на конец света / Seeking a Friend for the End of the World- Год выпуска: 2012
Страна: США, Сингапур, Малайзия, Индонезия
Жанр: фантастика, драма, мелодрама, комедия
Продолжительность: 101 мин. / 01:41
Перевод: Профессиональный(дублированный)-Режиссер: Лорин Скафария
Продюссер: Стив Голин, Джой Горман, Стивен Рейлс
Сценарий: Лорин Скафария
Бюджет: $10 000 000
Премьера в мире: 18 июня 2012
R - Лицам до 17 лет обязательно присутствие взрослого
6.90 (7 790)

В ролях: Стив Карелл, Кира Найтли, Адам Броди, Дерек Люк, Уильям Л. Питерсен, Роб Кордри, Мартин Шин, Тонита Кастро, Мелани Лински, Пэттон Освальт, Брэд Моррис, Нэнси Уоллс, Марк Мозес, Роджер Аарон Браун, Роб Хюбел, Триша Горман, Лесли Мерфи, Конни Бриттон, Каси Кэмпбелл, Винс Грант, Маршалл Манеш, ТиДжей Миллер, Гиллиан Джейкобс, Роберт Дж. Стефенсон, Джим О’Хейр, Дэниэл Морио, Тони Брау-Описание: К Земле приближается огромный астероид. В такой момент большинство мужчин пустилось бы во все тяжкие. Но только не Додж. Он отправляется на поиски школьной подружки в компании сексуальной соседки Пенни.-Качество: BDRip720p
Формат: MKV
Видео кодек: H.26x
Аудио кодек: AC3
Видео: 1280x544, 23.976 fps, ~ 4686 Kbit/s
Аудио: АС3, 48 kHz, 6 ch, 448 kbit/s Russian
DTS, 48 kHz, 6 ch, 1510 kbit/s English

M.I

Код:
General
Unique ID : 254324658312035879728554346434026456869 (0xBF5525C2D1214CE793E185C8B966C725)
Complete name : F:Iwu.druga.na.konec.sveta.2012.D.BDRip.720p.mkv
Format : Matroska
Format version : Version 2
File size : 4.69 GiB
Duration : 1h 41mn
Overall bit rate : 6 644 Kbps
Movie name : IRONCLUB
Encoded date : UTC 2012-10-10 07:13:45
Writing application : mkvmerge v4.9.1 ('Ich will') сборка от Jul 11 2011 23:53:15
Writing library : libebml v1.2.1 + libmatroska v1.1.1
Video
ID : 1
Format : AVC
Format/Info : Advanced Video Codec
Format profile : [email protected]
Format settings, CABAC : Yes
Format settings, ReFrames : 5 frames
Codec ID : V_MPEG4/ISO/AVC
Duration : 1h 41mn
Bit rate : 4 686 Kbps
Width : 1 280 pixels
Height : 544 pixels
Display aspect ratio : 2.35:1
Frame rate : 23.976 fps
Color space : YUV
Chroma subsampling : 4:2:0
Bit depth : 8 bits
Scan type : Progressive
Bits/(Pixel*Frame) : 0.281
Stream size : 3.21 GiB (69%)
Title : Seeking.a.Friend.for.the.End.of.the.World.2012.720p.BluRay.x264-SPARKS
Writing library : x264 core 128 r2216 198a7ea
Encoding settings : cabac=1 / ref=5 / deblock=1:0:0 / analyse=0x3:0x133 / me=umh / subme=7 / psy=1 / psy_rd=1.00:0.00 / mixed_ref=1 / me_range=16 / chroma_me=1 / trellis=1 / 8x8dct=1 / cqm=0 / deadzone=21,11 / fast_pskip=0 / chroma_qp_offset=-2 / threads=12 / lookahead_threads=2 / sliced_threads=0 / nr=0 / decimate=1 / interlaced=0 / bluray_compat=0 / constrained_intra=0 / bframes=3 / b_pyramid=2 / b_adapt=1 / b_bias=0 / direct=1 / weightb=1 / open_gop=0 / weightp=2 / keyint=250 / keyint_min=23 / scenecut=40 / intra_refresh=0 / rc_lookahead=40 / rc=2pass / mbtree=1 / bitrate=4686 / ratetol=1.0 / qcomp=0.60 / qpmin=0 / qpmax=69 / qpstep=4 / cplxblur=20.0 / qblur=0.5 / ip_ratio=1.40 / aq=1:1.00
Language : English
Default : Yes
Forced : Yes
Audio #1
ID : 2
Format : AC-3
Format/Info : Audio Coding 3
Mode extension : CM (complete main)
Codec ID : A_AC3
Duration : 1h 41mn
Bit rate mode : Constant
Bit rate : 448 Kbps
Channel(s) : 6 channels
Channel positions : Front: L C R, Side: L R, LFE
Sampling rate : 48.0 KHz
Bit depth : 16 bits
Compression mode : Lossy
Stream size : 324 MiB (7%)
Title : DD 5.1 @ 448 kbps - Dub, R5
Language : Russian
Default : Yes
Forced : Yes
Audio #2
ID : 3
Format : DTS
Format/Info : Digital Theater Systems
Codec ID : A_DTS
Duration : 1h 41mn
Bit rate mode : Constant
Bit rate : 1 510 Kbps
Channel(s) : 6 channels
Channel positions : Front: L C R, Side: L R, LFE
Sampling rate : 48.0 KHz
Bit depth : 24 bits
Compression mode : Lossy
Stream size : 1.07 GiB (23%)
Title : DTS 5.1 @ 1536 kbps
Language : English
Default : No
Forced : No
Text
ID : 4
Format : UTF-8
Codec ID : S_TEXT/UTF8
Codec ID/Info : UTF-8 Plain Text
Language : English
Default : No
Forced : No
Menu
00:00:00.000 : en:00:00:00.000
00:04:28.018 : en:00:04:28.018
00:10:30.547 : en:00:10:30.547
00:16:37.330 : en:00:16:37.330
00:21:35.044 : en:00:21:35.044
00:24:58.080 : en:00:24:58.080
00:31:22.589 : en:00:31:22.589
00:35:11.401 : en:00:35:11.401
00:40:37.685 : en:00:40:37.685
00:45:17.840 : en:00:45:17.840
00:50:00.623 : en:00:50:00.623
00:54:46.700 : en:00:54:46.700
01:01:06.413 : en:01:01:06.413
01:05:32.011 : en:01:05:32.011
01:13:14.181 : en:01:13:14.181
01:17:37.611 : en:01:17:37.611
01:21:50.280 : en:01:21:50.280
01:25:44.890 : en:01:25:44.890
01:28:24.966 : en:01:28:24.966
01:33:57.090 : en:01:33:57.090
-

Скриншоты

     

_________________
Other forum [Profile] [PM]
Display posts from previous:    
Reply to topic

The time now is: Today 19:38

All times are GMT + 3 Hours



You cannot post new topics in this forum
You cannot reply to topics in this forum
You cannot edit your posts in this forum
You cannot delete your posts in this forum
You cannot vote in polls in this forum
You cannot attach files in this forum
You cannot download files in this forum