Today is a free download without charge Download

Четыре свадьбы и одни похороны / Four Weddings and a Funeral (Майк Ньюэлл / Mike Newell) [ 1994 , Великобритания , мелодрама, комедия , BDRip 1080p]

Reply to topic
 
Author
Message

Delia ®

Gender:

Longevity: 11 years

Posts: 1821

Торрент-статистика

Post 10-Oct-2012 08:11

[Quote]

-Четыре свадьбы и одни похороныFour Weddings and a Funeral«love is on the air, run for cover»-- Год выпуска: 1994
Страна: Великобритания
Слоган: «love is on the air, run for cover»
Жанр: мелодрама, комедия
Продолжительность: 01:57:51
Перевод: Профессиональный (многоголосый, закадровый)
Режиссер: Майк Ньюэлл / Mike Newell
Сценарий: Ричард Кёртис / Richard Curtis
Продюсер: Дункан Кенуорси / Duncan Kenworthy, Тим Беван / Tim Bevan, Ричард Кёртис / Richard Curtis, Эрик Феллнер / Eric Fellner
Оператор: Майкл Коултер / Michael Coulter
Композитор: Ричард Родни Беннетт / Richard Rodney Bennett
В ролях:
Энди МакДауэлл (Carrie), Хью Грант (Charles), Джеймс Флит (Tom), Саймон Кэллоу (Gareth), Джон Ханна (Matthew), Кристин Скотт Томас (Fiona), Дэвид Бауэр (David), Шарлотта Коулман (Scarlett), Тимоти Уолкер (Angus the Groom - Wedding One), Сара Кроу (Laura the Bride - Wedding One), Рональд Хердман (Vicar - Wedding One), Elspet Gray (Laura's Mother - Wedding One)
Описание: Чарльз, 32-летний англичанин-интеллектуал, очень напрягается каждый раз, когда на горизонте вырисовывается перспектива женитьбы. Однажды, на очередной свадебной церемонии своего друга, он знакомится с очаровательной американкой Кэрри, и тут его оборонительная стратегия дает роковую трещину.-
MPAA: - Лицам до 17 лет обязательно присутствие взрослого--
Качество: BDRip
Контейнер: MKV
Видео: AVC, 1920x1040 (16:9), 8890 kbps, 23,976 fps, 0,186 bpp
Аудио №1: русский /; AC3 /; 5.1 /; 48 kHz /; 384 kbps /; 16 bit
Аудио №2: английский /; AC3 /; 5.1 /; 48 kHz /; 384 kbps /; 16 bit
Субтитры №1: русские
Субтитры №2: русские
Субтитры №3: русские; (FORCED)
Субтитры №4: английские--

Media Info

General
Unique ID : 209129459426787127797638713669382780944 (0x9D54DE6ABFAD5302A80AE02717733810)
Complete name : E:\торрент\Chetyre.svadby.i.odni.pohorony.1994.BDRip-F.HD.mkv
Format : Matroska
Format version : Version 2
File size : 7.95 GiB
Duration : 1h 57mn
Overall bit rate : 9 660 Kbps
Encoded date : UTC 2012-10-10 04:26:59
Writing application : mkvmerge v5.8.0 ('No Sleep / Pillow') built on Sep 2 2012 15:37:04
Writing library : libebml v1.2.3 + libmatroska v1.3.0
Video
ID : 1
Format : AVC
Format/Info : Advanced Video Codec
Format profile : [email protected]
Format settings, CABAC : Yes
Format settings, ReFrames : 4 frames
Codec ID : V_MPEG4/ISO/AVC
Duration : 1h 57mn
Bit rate : 8 890 Kbps
Width : 1 920 pixels
Height : 1 040 pixels
Display aspect ratio : 16:9
Frame rate : 23.976 fps
Color space : YUV
Chroma subsampling : 4:2:0
Bit depth : 8 bits
Scan type : Progressive
Bits/(Pixel*Frame) : 0.186
Stream size : 7.16 GiB (90%)
Writing library : x264 core 128 r2216 198a7ea
Encoding settings : cabac=1 / ref=4 / deblock=1:-2:-2 / analyse=0x3:0x113 / me=umh / subme=10 / psy=1 / psy_rd=0.90:0.05 / mixed_ref=1 / me_range=32 / chroma_me=1 / trellis=2 / 8x8dct=1 / cqm=0 / deadzone=21,11 / fast_pskip=0 / chroma_qp_offset=-3 / threads=6 / lookahead_threads=1 / sliced_threads=0 / nr=0 / decimate=1 / interlaced=0 / bluray_compat=0 / constrained_intra=0 / bframes=9 / b_pyramid=2 / b_adapt=2 / b_bias=0 / direct=3 / weightb=1 / open_gop=0 / weightp=2 / keyint=240 / keyint_min=23 / scenecut=40 / intra_refresh=0 / rc=2pass / mbtree=0 / bitrate=8890 / ratetol=1.0 / qcomp=0.75 / qpmin=0 / qpmax=69 / qpstep=4 / cplxblur=20.0 / qblur=0.5 / ip_ratio=1.35 / pb_ratio=1.25 / aq=2:0.80 / zones=163460,169536,q=35
Language : English
Default : Yes
Forced : No
Audio #1
ID : 2
Format : AC-3
Format/Info : Audio Coding 3
Mode extension : CM (complete main)
Codec ID : A_AC3
Duration : 1h 57mn
Bit rate mode : Constant
Bit rate : 384 Kbps
Channel(s) : 6 channels
Channel positions : Front: L C R, Side: L R, LFE
Sampling rate : 48.0 KHz
Bit depth : 16 bits
Compression mode : Lossy
Stream size : 324 MiB (4%)
Language : Russian
Default : Yes
Forced : No
Audio #2
ID : 3
Format : AC-3
Format/Info : Audio Coding 3
Mode extension : CM (complete main)
Codec ID : A_AC3
Duration : 1h 57mn
Bit rate mode : Constant
Bit rate : 384 Kbps
Channel(s) : 6 channels
Channel positions : Front: L C R, Side: L R, LFE
Sampling rate : 48.0 KHz
Bit depth : 16 bits
Compression mode : Lossy
Stream size : 324 MiB (4%)
Language : English
Default : No
Forced : No
Text #1
ID : 4
Format : UTF-8
Codec ID : S_TEXT/UTF8
Codec ID/Info : UTF-8 Plain Text
Language : Russian
Default : No
Forced : No
Text #2
ID : 5
Format : UTF-8
Codec ID : S_TEXT/UTF8
Codec ID/Info : UTF-8 Plain Text
Language : Russian
Default : No
Forced : No
Text #3
ID : 6
Format : UTF-8
Codec ID : S_TEXT/UTF8
Codec ID/Info : UTF-8 Plain Text
Title : FORCED
Language : Russian
Default : No
Forced : No
Text #4
ID : 7
Format : UTF-8
Codec ID : S_TEXT/UTF8
Codec ID/Info : UTF-8 Plain Text
Language : English
Default : No
Forced : No

Знаете ли Вы, что...

  • Энди МакДауэлл была утверждена на роль Кэрри всего за две недели до начала съёмок.
  • Бюджет фильма был настолько мал, что шотландскую свадьбу снимали не в Шотландии, а люди, задействованы в качестве массовки, были одеты в свои собственные костюмы.
  • Кристин Скотт Томас и Хью Грант также сыграли вместе в «Горькой Луне» (1992). В обоих фильмах героиню Томас зовут Фиона.
  • В одной из сцен Чарльз говорит Кэрри (Энди МакДауэлл): «На секунду мне показалось, что я попал в «Роковое влечение» (1987). Гленн Клоуз, сыгравшая в «Роковом влечении», переозвучивала героиню МакДауэлл в «Грейкстоук: Легенда о Тарзане, повелителе обезьян» (1984).
  • Во время съёмок Хью Грант считал, что фильм с треском провалится в прокате.
  • Сцену, в которой Кэрри поднимает вуаль платья, которое она примеряет, и видит Чарльза, была вырезана после тест-просмотров.
  • На начало 1999 года фильм «Четыре свадьбы и одни похороны» был самым кассовым в истории британского кино: мировые сборы составили $260 млн. долларов.
  • Большая часть роли Джереми Кемпа была вырезана.
  • Кристин Скотт Томас озвучивала свою героиню для французской дублированной версии фильма.
  • Из удаленной сцены мы узнаем, что Чарльз, Мэтью и Фиона учились в одном университете. Гарет был учителем в том же университете.
  • Ричард Родни Беннетт, написавший музыку для фильма, заснул во время своего первого просмотра картины.
  • Роль Кэрри могла достаться Джини Трипплхорн.


Скриншоты

     
     

_________________
Человек – это канат, натянутый между животным и сверхчеловеком, – канат над пропастью.
В человеке ценно то, что он мост, а не цель. Фридрих Ницше
Other forum [Profile] [PM]
Display posts from previous:    
Reply to topic

The time now is: Today 11:17

All times are GMT + 3 Hours



You cannot post new topics in this forum
You cannot reply to topics in this forum
You cannot edit your posts in this forum
You cannot delete your posts in this forum
You cannot vote in polls in this forum
You cannot attach files in this forum
You cannot download files in this forum