Today is a free download without charge Download

Рок на века / Rock of Ages (Адам Шенкман / Adam Shankman) [2012, США, мюзикл, драма, мелодрама, комедия, DVD9] R5 «CP Дистрибуция»

Reply to topic
 
Author
Message

Koralina ®

Longevity: 9 years 7 months

Posts: 994

Location: Lithuania

Торрент-статистика

Post 09-Oct-2012 14:51

[Quote]

Рок на века / Rock of Ages Страна: США
Студия: Corner Store Entertainment, Maguire Entertainment, Material Pictures, New Line Cinema, Offspring Entertainment
Жанр: мюзикл, драма, мелодрама, комедия
Год выпуска: 2012
Мировая премьера: 13 июня 2012
Российская премьера: 14 июня 2012, «Каро-Премьер»
Дата выхода DVD: 11 октября 2012, «CP Дистрибуция»
Дата выхода Blu-Ray: 11 октября 2012, «CP Дистрибуция»
Продолжительность: 02:03:21
Перевод: Профессиональный (дублированный) [Лицензия]
Cубтитры: русские (форсированные)
Оригинальная аудиодорожка: нет
Режиссер: Адам Шенкман / Adam Shankman
В ролях: Джулианна Хаф, Диего Бонета, Расселл Брэнд, Пол Джаматти, Кэтрин Зета-Джонс, Малин Акерман, Мэри Джей Блайдж, Алек Болдуин, Том Круз, Дакота Сэйдж Грант
Описание: Девушка из маленького города приезжает в Голливуд, чтобы покорить его музыкальную сцену, но вопреки мечтам оказывается раздавленной безжалостной Фабрикой Грез. Но на нее обращает внимание экс-звезда рок-сцены Стэйси Джеккс, а сама девушка, хоть и устраивается работать в стрипклуб, обретает настоящую любовь.
Бонусы: нет

Качество: DVD9 R5
Формат: DVD-Video
Видео кодек: MPEG2
Аудио кодек: AC3
Видео: PAL 16:9 (720x576(0.549)) MPEG Video, 25,000 кадр/сек, 5687 Кбит/сек
Аудио: Russian (Dolby AC3, 6 ch) 384 Кбит/сек, 48,0 КГц

DVDInfo

Title: Rok.na.veka.2012.DVD9
Size: 5.23 Gb ( 5 480 136,00 KBytes ) - DVD-9
Enabled regions: 1, 2, 3, 4, 5, 6, 7, 8
VTS_01 :
Play Length: 01:58:21+00:00:00
Video: PAL 16:9 (720x576) VBR, Auto Letterboxed
Audio:
Russian (Dolby AC3, 6 ch)
Subtitles:
Russian
VTS_02 :
Play Length: 00:00:10
Video: PAL 16:9 (720x576) VBR, Auto Letterboxed
Audio:
Not specified (Dolby AC3, 6 ch)
Subtitles:
Not specified
* Menus Information *
VIDEO_TS Menu
Video:
PAL 16:9 (720x576) VBR
Auto Pan&Scan
Language Unit :
Title Menu
VTS_01 Menu
Video:
PAL 16:9 (720x576) VBR
Auto Pan&Scan
Audio:
Not specified (Dolby AC3, 2 ch)
English Language Unit :
Root Menu
VTS_02 Menu
Video:
NTSC 4:3 (720x480) VBR
Auto Pan&Scan, Auto Letterboxed
Language Unit :
Root Menu

MediaInfo

Общее
Полное имя : J:\Новинки 2012\Rok.na.veka.2012.DVD9\VIDEO_TS\VTS_01_2.VOB
Формат : MPEG-PS
Размер файла : 1024 Мбайт
Продолжительность : 23 м.
Режим общего битрейта : Переменный
Общий поток : 6194 Кбит/сек
Видео
Идентификатор : 224 (0xE0)
Формат : MPEG Video
Версия формата : Version 2
Профиль формата : [email protected]
Параметр BVOP формата : Да
Параметр матрицы формата : Выборочная
Продолжительность : 23 м.
Вид битрейта : Переменный
Битрейт : 5687 Кбит/сек
Максимальный битрейт : 7500 Кбит/сек
Ширина : 720 пикселей
Высота : 576 пикселей
Соотношение сторон : 16:9
Частота кадров : 25,000 кадров/сек
Стандарт вещания : PAL
Цветовое пространство : YUV
Субдискретизация насыщенности : 4:2:0
Битовая глубина : 8 бит
Тип развёртки : Чересстрочная
Порядок развёртки : Верхнее поле первое
Метод сжатия : С потерями
Бит/(Пиксели*Кадры) : 0.549
Размер потока : 940 Мбайт (92%)
Аудио
Идентификатор : 189 (0xBD)-128 (0x80)
Формат : AC-3
Формат/Информация : Audio Coding 3
Расширение режима : CM (complete main)
Параметр Endianness формата : Big
Режим смешивания : DVD-Video
Продолжительность : 23 м.
Вид битрейта : Постоянный
Битрейт : 384 Кбит/сек
Каналы : 6 каналов
Расположение каналов : Front: L C R, Side: L R, LFE
Частота : 48,0 КГц
Битовая глубина : 16 бит
Метод сжатия : С потерями
Задержка видео : -488 мс.
Размер потока : 63,5 Мбайт (6%)

Скриншоты меню

     

Скриншоты фильма

                   

_________________
Other forum [Profile] [PM]
Display posts from previous:    
Reply to topic

The time now is: Today 04:57

All times are GMT + 3 Hours



You cannot post new topics in this forum
You cannot reply to topics in this forum
You cannot edit your posts in this forum
You cannot delete your posts in this forum
You cannot vote in polls in this forum
You cannot attach files in this forum
You cannot download files in this forum