Today is a free download without charge Download

Фобия / See prang (Баньенг Писензенекун, Павин Пурикитпани, Йонгйут Тонгконгтун, Паркпум Вонгпум) [2008 г., ужасы, триллер, драма, детектив, DVDRip]

Reply to topic
 
Author
Message

Jurchic ®

Longevity: 9 years 7 months

Posts: 42

Location: такое любопытство

Торрент-статистика

Post 08-Oct-2012 16:51

[Quote]

Фобия / See prang (2008) DVDRip«Столкнитесь со своими страхами»-- Год выпуска: 2008
Страна: Таиланд
Жанр: ужасы, триллер, драма, детектив
Продолжительность: 01:56:15
Перевод: двухголосый закадровый
Режиссер: Баньенг Писензенекун, Павин Пурикитпани, Йонгйут Тонгконгтун, Паркпум Вонгпум
Продюссер: Jira Maligool, Chenchonnanee Soonthonsaratul, Suvimon Techasupinun
Сценарий: Баньенг Писензенекун, Vanridee Pongsittisak, Павин Пурикитпани
В ролях: Maneerat Kham-uan, Witawat Singlampong, Апиня Сакуляроенсак, Chon Wachananon, Nattapong Chartpong, Kantapat Permpoonpatcharasuk, Pongsatorn Jongwilak, Wiwat Kongrasri, Лайла Бунясак, Nada Lesongan
Премьера в мире: 25 апреля 2008
--Описание: Четыре короткометражных фильма от студии GTH и четырех всемирно известных режиссеров.
Четыре никак не связанные между собой истории. Разные герои. Разные судьбы. Объединяет всех лишь чувство страха и ужаса, а также некая связь с миром мертвых.
«Счастье»: Девушка, попавшая в автокатастрофу, вот уже три месяца сидит дома с переломом ноги и ее единственное развлечение — мобильник и Интернет. В какой-то определенный день, ставшим для нее судным, юная леди получает смс-ку от неизвестного парня, которому очень одиноко. Завязываются бесконечные диалоги, а она даже не подозревает, кем является ее собеседник на самом деле.
«Зуб за зуб»: Про то, как не следует обижать маленьких и слабых, особенно если этот несчастный владеет темной магией.
«В середине»: Не очень страшная, но веселая история о четырех подростках, отдыхе на природе и страшных сказках на ночь.
«Последний полет»: Стюардесса, пустой самолет (капитан и второй пилот не в счет) и труп жены ее любовника. Очень милый набор. Последний полет. Полет, полный ужаса. Дикого и неконтролируемого.--Качество: DVDRip
Формат: AVI
Видео кодек: XviD
Аудио кодек: AC3
Видео: 1286 Кбит/сек, 704х384, 23,976 кадра/сек, MPEG-4 Visual
Аудио: 384 Кбит/сек, 48,0 КГц, 6 каналов, 16 бит, AC-3

MediaInfo:

Код:
Общее
Полное имя                               : :\\Phobia.2008.P.DVDRip.avi
Формат                                   : AVI
Формат/Информация                        : Audio Video Interleave
Размер файла                             : 1,36 Гбайт
Продолжительность                        : 1 ч. 56 м.
Общий поток                              : 1680 Кбит/сек
Программа кодирования                    : VirtualDubMod 1.5.4.1 (build 2178/release)
Библиотека кодирования                   : VirtualDubMod build 2178/release
Видео
Идентификатор                            : 0
Формат                                   : MPEG-4 Visual
Профиль формата                          : Advanced [email protected]
Параметр BVOP формата                    : 1
Параметр QPel формата                    : Нет
Параметр GMC формата                     : Без точки перехода
Параметр матрицы формата                 : Default (MPEG)
Режим смешивания                         : Сжатый битовый поток
Идентификатор кодека                     : XVID
Идентификатор кодека/Подсказка           : XviD
Продолжительность                        : 1 ч. 56 м.
Битрейт                                  : 1286 Кбит/сек
Ширина                                   : 704 пикселя
Высота                                   : 384 пикселя
Соотношение сторон                       : 1,85:1
Частота кадров                           : 23,976 кадра/сек
Цветовое пространство                    : YUV
Субдискретизация насыщенности            : 4:2:0
Битовая глубина                          : 8 бит
Тип развёртки                            : Прогрессивная
Метод сжатия                             : С потерями
Бит/(Пиксели*Кадры)                      : 0.198
Размер потока                            : 1,04 Гбайт (77%)
Библиотека кодирования                   : XviD 1.2.0.dev47 (UTC 2006-11-01)
Аудио
Идентификатор                            : 1
Формат                                   : AC-3
Формат/Информация                        : Audio Coding 3
Расширение режима                        : CM (complete main)
Параметр Endianness формата              : Big
Идентификатор кодека                     : 2000
Продолжительность                        : 1 ч. 56 м.
Вид битрейта                             : Постоянный
Битрейт                                  : 384 Кбит/сек
Каналы                                   : 6 каналов
Расположение каналов                     : Front: L C R, Side: L R, LFE
Частота                                  : 48,0 КГц
Битовая глубина                          : 16 бит
Метод сжатия                             : С потерями
Размер потока                            : 319 Мбайт (23%)
Выравнивание                             : Разделение по промежуткам
Продолжительность промежутка             : 42  мс. (1,00 видеокадр)
Время предзагрузки промежутка            : 500  мс.

Скриншоты

                   
Other forum [Profile] [PM]
Display posts from previous:    
Reply to topic

The time now is: Today 19:03

All times are GMT + 3 Hours



You cannot post new topics in this forum
You cannot reply to topics in this forum
You cannot edit your posts in this forum
You cannot delete your posts in this forum
You cannot vote in polls in this forum
You cannot attach files in this forum
You cannot download files in this forum