Today is a free download without charge Download

Жмурки (Алексей Балабанов) [2005г, триллер, комедия, криминал,] DVDRip

Reply to topic
 
Author
Message

sergei91 ®

Gender:

Longevity: 8 years 4 months

Posts: 44

Торрент-статистика

Post 07-Oct-2012 18:53

[Quote]

«Для тех, кто выжил в 90-е»Название: Жмурки
Год выпуска: 2005
Страны: Россия
Жанры: триллер, комедия, криминал, ...
Продолжительность: 01:45:20--Перевод: Не требуется
Режиссер: Алексей Балабанов
Сценарий: Алексей Балабанов, Стас Мохначев
Продюсер: Сергей Долгошейн, Сергей Сельянов
Оператор: Евгений Привин, Заур Болотаев
Композитор: Вячеслав Бутусов
Художник: Павел Пархоменко, Константин Пахотин, Татьяна Патрахальцева, ...
Монтаж: Татьяна Кузьмичева--В ролях: Алексей Панин (Сергей),Дмитрий Дюжев (Саймон), Никита Михалков (Сергей Михайлович (Михалыч)), Сергей Маковецкий (Корон), Виктор Сухоруков (Степан), Дмитрий Певцов (адвокат Борщанский), Кирилл Пирогов (Палач), Алексей Серебряков (доктор), Андрей Мерзликин (охранник Михалыча), Юрий Степанов (Кабан)

--Описание: Жмурки — старинная русская игра: водящий, с завязанными глазами, ловит остальных играющих. К середине 1990-х правила игры изменились: выигрывает тот, кто останется в живых, сделав жмуриками остальных «играющих».
Нижний Новгород. Два мелких бандита Серега и Саймон работали на крупного бандюгана Сергея Михайловича. Только вот очередное его поручение парни завалили: он велел привезти химика, колдовавшего над созданием новой порции белого порошка, а Серега и Саймон устроили в лаборатории настоящую бойню, оставив там трупы — химика и парочки его охранников.
Сергей Михайлович сильно рассердился, но ограничился устным внушением, после чего дал парням другое поручение: съездить в адвокатскую контору и обменять чемоданчик с деньгами на чемоданчик с героином. Но и тут Сереге и Саймону не повезло: обмен-то состоялся, только на выходе из конторы их встретили Корон, Бала и Баклажан — три бандита, которых нанял старший лейтенант милиции Степан, «оборотень в погонах», мечтающий кинуть Сергея Михайловича на большие бабки…
--Сборы в России: $4 001 447
Премьера (мир): 27 мая 2005, ...
Премьера (РФ): 26 мая 2005, «Наше Кино»
Релиз на DVD: 18 июня 2009, «Союз-Видео», ...
Релиз на Blu-Ray: 9 июля 2009, «Монолит», ...

--Тех. данные:
  • Качество: DVDRip
  • Формат: AVI
  • Видео кодек: DivX 5
  • Аудио кодек: AC3
  • Видео: 672x368 (16:9), 25.000 fps, DivX 5, 1 585 Kbps
  • Аудио: AC3, 192 Kbps, 48.0 KHz, 2 ch

Знаете ли Вы, что...

Большинство актёров были утверждены на свои роли без всяких проб.
В ранней версии сценария фильма было 18 трупов.
В ходе съёмок было израсходовано 50 литров фальшивой крови.
В фильме есть персонаж по имени Кабан, взятый из сериала «Бригада», где о нём только упоминается.
Хотя фильм снимался в Нижнем Новгороде, на автомобиле Михалыча видны санкт-петербургские номера.
Рабочее название фильма — «Кавардак».
На МКФ в Хельсинки (Финляндия) фильм был представлен под названием «Блеф мертвеца».
В США фильм демонстрировался под прокатным названием «Блеф слепца».

MediaInfo

General
Complete name : zhmurki.avi
Format : AVI
Format/Info : Audio Video Interleave
File size : 1.37 GiB
Duration : 1h 45mn
Overall bit rate : 1 859 Kbps
Movie name : Comedy
Director : KAMO
Subject : Comedy
Writing application : VirtualDubMod 1.4.13
Writing library : VirtualDub build 14328/release
Copyright : DVDrip
Video
ID : 0
Format : MPEG-4 Visual
Format settings, BVOP : Yes
Format settings, QPel : No
Format settings, GMC : No warppoints
Format settings, Matrix : Default (H.263)
Muxing mode : Packed bitstream
Codec ID : DX50
Codec ID/Hint : DivX 5
Duration : 1h 45mn
Bit rate : 1 585 Kbps
Width : 672 pixels
Height : 368 pixels
Display aspect ratio : 16:9
Frame rate : 25.000 fps
Color space : YUV
Chroma subsampling : 4:2:0
Bit depth : 8 bits
Scan type : Progressive
Bits/(Pixel*Frame) : 0.256
Stream size : 1.17 GiB (85%)
Writing library : DivX 5.2.0 (UTC 2004-07-15)
Audio
ID : 1
Format : AC-3
Format/Info : Audio Coding 3
Mode extension : CM (complete main)
Codec ID : 2000
Duration : 1h 45mn
Bit rate mode : Constant
Bit rate : 192 Kbps
Channel(s) : 2 channels
Channel positions : Front: L R
Sampling rate : 48.0 KHz
Bit depth : 16 bits
Stream size : 145 MiB (10%)
Alignment : Split accross interleaves

         

_________________

Other forum [Profile] [PM]
Display posts from previous:    
Reply to topic

The time now is: Today 22:56

All times are GMT + 3 Hours



You cannot post new topics in this forum
You cannot reply to topics in this forum
You cannot edit your posts in this forum
You cannot delete your posts in this forum
You cannot vote in polls in this forum
You cannot attach files in this forum
You cannot download files in this forum