Today is a free download without charge Download

(Pop, Chanson, Ballad, CCCP) Владимир Высоцкий - Я спою... Золотая коллекция 6 CD (2005), WavPack (image+.cue+.log), lossless

Reply to topic
 
Author
Message

Igor 1968 ®

Gender:

Longevity: 8 years 11 months

Posts: 140

Location: Харьков Украина

Торрент-статистика

Post 07-Oct-2012 17:09

[Quote]

Владимир Высоцкий - Я спою... Золотая коллекция (2005) 6 CD- Год: 2005
Жанр: Pop, Chanson, Ballad, CCCP
Издатель: Ⓟ+Ⓒ 2005 Monolit|Sintez Production (Moscow). Made in Russia.
Формат издания: 6 х CD Collection
Каталог: SP500CD - SP505CD
Продолжительность: 04:58:10
Кодек: WavPack
Битрейт: Lossless
Тип рипа: image+.cue+.log
Наличие сканов: есть-Трек лист:

CD-1 ''Я спою... О войне''

(SP-500CD) Barcode : 4 607108 796635
Продолжительность: 00:49:33
Трек лист:
01. Братские могилы [01:18]
02. Военная песня [02:29]
03. Все ушли на фронт [02:22]
04. Высота [01:31]
05. Штрафные батальоны [02:52]
06. Случай в ресторане [02:00]
07. Ленинградская блокада [01:12]
08. Песня о нейтральной полосе [02:12]
09. Песня о звёздах [01:54]
10. Песня о новом времени [02:05]
11. Песня о погибшем лётчике [04:52]
12. Песня лётчика [02:42]
13. Песня самолёта-истребителя [03:28]
14. Разведка боем [02:28]
15. Давно смолкли залпы орудий [02:12]
16. Спасите наши души [04:36]
17. Тот, который не стрелял [02:47]
18. Чёрные бушлаты [03:59]
19. Расстрел горного эха [02:25]

Отчёт ЕАС:

Код:
Exact Audio Copy V0.99 prebeta 5 from 4. May 2009
EAC extraction logfile from 12. September 2010, 22:28
Владимир Высоцкий / Я спою... О войне
Used drive  : Optiarc DVD RW AD-7203S   Adapter: 3  ID: 1
Read mode               : Secure
Utilize accurate stream : Yes
Defeat audio cache      : Yes
Make use of C2 pointers : No
Read offset correction                      : 48
Overread into Lead-In and Lead-Out          : No
Fill up missing offset samples with silence : Yes
Delete leading and trailing silent blocks   : No
Null samples used in CRC calculations       : Yes
Used interface                              : Installed external ASPI interface
Used output format : Internal WAV Routines
Sample format      : 44.100 Hz; 16 Bit; Stereo
TOC of the extracted CD
     Track |   Start  |  Length  | Start sector | End sector
    ---------------------------------------------------------
        1  |  0:00.00 |  1:18.74 |         0    |     5923
        2  |  1:18.74 |  2:29.66 |      5924    |    17164
        3  |  3:48.65 |  2:22.02 |     17165    |    27816
        4  |  6:10.67 |  1:31.17 |     27817    |    34658
        5  |  7:42.09 |  2:52.06 |     34659    |    47564
        6  | 10:34.15 |  2:00.18 |     47565    |    56582
        7  | 12:34.33 |  1:12.70 |     56583    |    62052
        8  | 13:47.28 |  2:12.69 |     62053    |    72021
        9  | 16:00.22 |  1:54.30 |     72022    |    80601
       10  | 17:54.52 |  2:05.12 |     80602    |    89988
       11  | 19:59.64 |  4:52.04 |     89989    |   111892
       12  | 24:51.68 |  2:42.45 |    111893    |   124087
       13  | 27:34.38 |  3:28.22 |    124088    |   139709
       14  | 31:02.60 |  2:28.44 |    139710    |   150853
       15  | 33:31.29 |  2:12.55 |    150854    |   160808
       16  | 35:44.09 |  4:36.67 |    160809    |   181575
       17  | 40:21.01 |  2:47.68 |    181576    |   194168
       18  | 43:08.69 |  3:59.08 |    194169    |   212101
       19  | 47:08.02 |  2:25.69 |    212102    |   223045
Range status and errors
Selected range
     Filename G:\НАШЕ РЕТРО\Владимир Высоцкий - Я спою ... (6CD RU 2005 Sintez Production • SP500~5)\CD1-(SP-500CD) ''Я спою... О войне''\Владимир Высоцкий - Я спою... О войне.wav
     Peak level 70.7 %
     Range quality 100.0 %
     Copy CRC 2DADC3C0
     Copy OK
No errors occurred
End of status report

Отчёт auCDtect Task manager:

Код:
-----------------------
DON'T MODIFY THIS FILE
-----------------------
PERFORMER: auCDtect Task Manager, ver. 1.5.1RC4 build 1.5.1.5
Copyright (c) 2008-2010 y-soft. All rights reserved
http://y-soft.org
ANALYZER: auCDtect: CD records authenticity detector, version 0.8.2
Copyright (c) 2004 Oleg Berngardt. All rights reserved.
Copyright (c) 2004 Alexander Djourik. All rights reserved.
FILE: Владимир Высоцкий - Я спою... О войне.wv
  Size: 190324242 Hash: A05D58788816E3CB6395B01E1100E7A1 Accuracy: -m0
  Conclusion: CDDA 100%
  Signature: DF2E329F988690A6CDC28AC8D5617D9CE6F4C075

CD-2 ''Я спою... О друзьях''

(SP-501CD) Barcode : 4 607108 796642
Продолжительность: 00:49:43
Трек лист:
01. Он не вернулся из боя [03:23]
02. Аисты [03:21]
03. Солдаты группы 'Центр' [01:27]
04. Песня о друге [02:56]
05. Здесь вам не равнина [02:33]
06. Прощание с горами [02:47]
07. Корабли постоят - и ложатся на курс... [02:34]
08. Мой друг уехал в Магадан... [02:14]
09. Попутчик [02:34]
10. Сыт я по горло, до подбородка... [00:59]
11. Про Серёжку Фомина [02:37]
12. Песня про снайпера, который через 15 лет после войны спился и сидит в ресторане [00:47]
13. За меня невеста отрыдает честно... [02:09]
14. Ребята, напишите мне письмо [01:55]
15. Мне ребята сказали про такую наколку!.. [02:18]
16. Песня о сумасшедшем доме [01:58]
17. Перед выездом в загранку... [01:50]
18. Про дикого вепря [02:23]
19. Письмо на выставку [02:27]
20. Письмо в деревню [02:27]
21. В далёком созвездии Тау Кита [03:44]

Отчёт ЕАС:

Код:
Exact Audio Copy V0.99 prebeta 5 from 4. May 2009
EAC extraction logfile from 12. September 2010, 22:54
Владимир Высоцкий / Я спою... О друзьях
Used drive  : Optiarc DVD RW AD-7203S   Adapter: 3  ID: 1
Read mode               : Secure
Utilize accurate stream : Yes
Defeat audio cache      : Yes
Make use of C2 pointers : No
Read offset correction                      : 48
Overread into Lead-In and Lead-Out          : No
Fill up missing offset samples with silence : Yes
Delete leading and trailing silent blocks   : No
Null samples used in CRC calculations       : Yes
Used interface                              : Installed external ASPI interface
Used output format : Internal WAV Routines
Sample format      : 44.100 Hz; 16 Bit; Stereo
TOC of the extracted CD
     Track |   Start  |  Length  | Start sector | End sector
    ---------------------------------------------------------
        1  |  0:00.00 |  3:23.65 |         0    |    15289
        2  |  3:23.65 |  3:21.45 |     15290    |    30409
        3  |  6:45.35 |  1:27.42 |     30410    |    36976
        4  |  8:13.02 |  2:56.29 |     36977    |    50205
        5  | 11:09.31 |  2:33.66 |     50206    |    61746
        6  | 13:43.22 |  2:47.31 |     61747    |    74302
        7  | 16:30.53 |  2:34.11 |     74303    |    85863
        8  | 19:04.64 |  2:14.09 |     85864    |    95922
        9  | 21:18.73 |  2:34.64 |     95923    |   107536
       10  | 23:53.62 |  0:59.00 |    107537    |   111961
       11  | 24:52.62 |  2:37.32 |    111962    |   123768
       12  | 27:30.19 |  0:47.68 |    123769    |   127361
       13  | 28:18.12 |  2:09.30 |    127362    |   137066
       14  | 30:27.42 |  1:55.41 |    137067    |   145732
       15  | 32:23.08 |  2:18.40 |    145733    |   156122
       16  | 34:41.48 |  1:58.73 |    156123    |   165045
       17  | 36:40.46 |  1:50.08 |    165046    |   173303
       18  | 38:30.54 |  2:23.60 |    173304    |   184088
       19  | 40:54.39 |  2:27.11 |    184089    |   195124
       20  | 43:21.50 |  2:27.40 |    195125    |   206189
       21  | 45:49.15 |  3:44.10 |    206190    |   222999
Range status and errors
Selected range
     Filename G:\НАШЕ РЕТРО\Владимир Высоцкий - Я спою ... (6CD RU 2005 Sintez Production • SP500~5)\CD2-(SP-501CD) ''Я спою... О друзьях''\Владимир Высоцкий - Я спою... О друзьях.wav
     Peak level 79.5 %
     Range quality 100.0 %
     Copy CRC 1D5DCC96
     Copy OK
No errors occurred
End of status report

Отчёт auCDtect Task manager:

Код:
-----------------------
DON'T MODIFY THIS FILE
-----------------------
PERFORMER: auCDtect Task Manager, ver. 1.5.1RC4 build 1.5.1.5
Copyright (c) 2008-2010 y-soft. All rights reserved
http://y-soft.org
ANALYZER: auCDtect: CD records authenticity detector, version 0.8.2
Copyright (c) 2004 Oleg Berngardt. All rights reserved.
Copyright (c) 2004 Alexander Djourik. All rights reserved.
FILE: Владимир Высоцкий - Я спою... О друзьях.wv
  Size: 184952481 Hash: 8A8632DBCD3E95A05482CBD291BF1D39 Accuracy: -m0
  Conclusion: CDDA 100%
  Signature: F6D72B4442103C31F41E15FAB1F89EDD72CEFDF7

CD-3 ''Я спою... Городской романс''

(SP-502CD) Barcode : 4 607108 796659
Продолжительность: 00:49:43
Трек лист:
01. Татуировка [02:00]
02. Весна ещё в начале [01:48]
03. Тот, кто раньше с нею был [02:58]
04. Бодайбо [01:34]
05. Красное, зелёное [00:44]
06. Я был душой дурного общества [02:14]
07. У тебя глаза - как нож [01:27]
08. Что же ты, зараза, бровь себе подбрила... [01:03]
09. Катерина, Катя, Катерина... [01:11]
10. Ну о чём с тобою говорить!.. [01:15]
11. Передо мной любой факир - ну просто карлик... [01:18]
12. Наводчица [01:45]
13. Городской романс [02:31]
14. О нашей встрече [02:56]
15. Позабыв про дела и тревоги... [01:37]
16. Песня про стукача [02:23]
17. Серебряные струны [02:28]
18. Зэка Васильев и Петров зэка [02:35]
19. Бал-маскарад [01:37]
20. То была не интрижка... [01:29]
21. Я любил и женщин и проказы... [01:50]
22. Я был слесарь шестого разряда [01:34]
23. Антисемиты [02:17]
24. Письмо рабочих тамбовского завода китайским руководителям [02:24]
25. Возле города Пекина... [01:44]
26. Пародия на плохой детектив [02:40]

Отчёт ЕАС:

Код:
Exact Audio Copy V0.99 prebeta 5 from 4. May 2009
EAC extraction logfile from 12. September 2010, 23:15
Владимир Высоцкий / Я спою... Городской романс
Used drive  : Optiarc DVD RW AD-7203S   Adapter: 3  ID: 1
Read mode               : Secure
Utilize accurate stream : Yes
Defeat audio cache      : Yes
Make use of C2 pointers : No
Read offset correction                      : 48
Overread into Lead-In and Lead-Out          : No
Fill up missing offset samples with silence : Yes
Delete leading and trailing silent blocks   : No
Null samples used in CRC calculations       : Yes
Used interface                              : Installed external ASPI interface
Used output format : Internal WAV Routines
Sample format      : 44.100 Hz; 16 Bit; Stereo
TOC of the extracted CD
     Track |   Start  |  Length  | Start sector | End sector
    ---------------------------------------------------------
        1  |  0:00.00 |  2:00.24 |         0    |     9023
        2  |  2:00.24 |  1:48.66 |      9024    |    17189
        3  |  3:49.15 |  2:58.07 |     17190    |    30546
        4  |  6:47.22 |  1:34.64 |     30547    |    37660
        5  |  8:22.11 |  0:44.04 |     37661    |    40964
        6  |  9:06.15 |  2:14.39 |     40965    |    51053
        7  | 11:20.54 |  1:27.26 |     51054    |    57604
        8  | 12:48.05 |  1:03.06 |     57605    |    62335
        9  | 13:51.11 |  1:11.15 |     62336    |    67675
       10  | 15:02.26 |  1:15.36 |     67676    |    73336
       11  | 16:17.62 |  1:18.46 |     73337    |    79232
       12  | 17:36.33 |  1:45.49 |     79233    |    87156
       13  | 19:22.07 |  2:31.66 |     87157    |    98547
       14  | 21:53.73 |  2:56.42 |     98548    |   111789
       15  | 24:50.40 |  1:37.04 |    111790    |   119068
       16  | 26:27.44 |  2:23.66 |    119069    |   129859
       17  | 28:51.35 |  2:28.05 |    129860    |   140964
       18  | 31:19.40 |  2:35.71 |    140965    |   152660
       19  | 33:55.36 |  1:37.28 |    152661    |   159963
       20  | 35:32.64 |  1:29.44 |    159964    |   166682
       21  | 37:02.33 |  1:50.21 |    166683    |   174953
       22  | 38:52.54 |  1:34.10 |    174954    |   182013
       23  | 40:26.64 |  2:17.65 |    182014    |   192353
       24  | 42:44.54 |  2:24.14 |    192354    |   203167
       25  | 45:08.68 |  1:44.06 |    203168    |   210973
       26  | 46:52.74 |  2:40.73 |    210974    |   223046
Range status and errors
Selected range
     Filename G:\НАШЕ РЕТРО\Владимир Высоцкий - Я спою ... (6CD RU 2005 Sintez Production • SP500~5)\CD3-(SP-502CD) ''Я спою... Городской романс''\Владимир Высоцкий - Я спою... Городской романс.wav
     Peak level 88.8 %
     Range quality 100.0 %
     Copy CRC DEC362CF
     Copy OK
No errors occurred
End of status report

Отчёт auCDtect Task manager:

Код:
-----------------------
DON'T MODIFY THIS FILE
-----------------------
PERFORMER: auCDtect Task Manager, ver. 1.5.1RC4 build 1.5.1.5
Copyright (c) 2008-2010 y-soft. All rights reserved
http://y-soft.org
ANALYZER: auCDtect: CD records authenticity detector, version 0.8.2
Copyright (c) 2004 Oleg Berngardt. All rights reserved.
Copyright (c) 2004 Alexander Djourik. All rights reserved.
FILE: Владимир Высоцкий - Я спою... Городской романс.wv
  Size: 172705954 Hash: 3CC245276CAE18A0D98CAB9DF37DBFA6 Accuracy: -m0
  Conclusion: CDDA 100%
  Signature: B9938D824B71F883FF213315CF87A9D63D2935A

CD-4 ''Я спою... Ноль семь''

(SP-503CD) Barcode : 4 607108 796666
Продолжительность: 00:49:51
Трек лист:
01. Ноль семь [02:30]
02. Она была в Париже [01:35]
03. Скалолазка [02:05]
04. Дом хрустальный [02:17]
05. Здесь лапы у елей дрожат на весу... [03:37]
06. Мне каждый вечер зажигают свечи... [01:59]
07. Песня о вещей Кассандре [01:39]
08. Песня о вещем Олеге [02:31]
09. От скушных шабашей... [02:38]
10. Лукоморья больше нет [04:01]
11. Невидимка [03:06]
12. Песня завистника [01:44]
13. Инструкция перед поездкой за рубеж или полчаса в месткоме [04:49]
14. Случай на таможне [04:22]
15. Милицейский протокол [03:14]
16. Поездка в город [02:51]
17. Посещение музы или песенка плагиатора [01:54]
18. Песенка о слухах [02:51]

Отчёт ЕАС:

Код:
Exact Audio Copy V0.99 prebeta 5 from 4. May 2009
EAC extraction logfile from 12. September 2010, 23:41
Владимир Высоцкий / Я спою... Ноль семь
Used drive  : Optiarc DVD RW AD-7203S   Adapter: 3  ID: 1
Read mode               : Secure
Utilize accurate stream : Yes
Defeat audio cache      : Yes
Make use of C2 pointers : No
Read offset correction                      : 48
Overread into Lead-In and Lead-Out          : No
Fill up missing offset samples with silence : Yes
Delete leading and trailing silent blocks   : No
Null samples used in CRC calculations       : Yes
Used interface                              : Installed external ASPI interface
Used output format : Internal WAV Routines
Sample format      : 44.100 Hz; 16 Bit; Stereo
TOC of the extracted CD
     Track |   Start  |  Length  | Start sector | End sector
    ---------------------------------------------------------
        1  |  0:00.00 |  2:30.56 |         0    |    11305
        2  |  2:30.56 |  1:35.20 |     11306    |    18450
        3  |  4:06.01 |  2:05.08 |     18451    |    27833
        4  |  6:11.09 |  2:17.49 |     27834    |    38157
        5  |  8:28.58 |  3:37.09 |     38158    |    54441
        6  | 12:05.67 |  1:59.36 |     54442    |    63402
        7  | 14:05.28 |  1:39.36 |     63403    |    70863
        8  | 15:44.64 |  2:31.71 |     70864    |    82259
        9  | 18:16.60 |  2:38.54 |     82260    |    94163
       10  | 20:55.39 |  4:01.12 |     94164    |   112250
       11  | 24:56.51 |  3:06.19 |    112251    |   126219
       12  | 28:02.70 |  1:44.33 |    126220    |   134052
       13  | 29:47.28 |  4:49.53 |    134053    |   155780
       14  | 34:37.06 |  4:22.52 |    155781    |   175482
       15  | 38:59.58 |  3:14.02 |    175483    |   190034
       16  | 42:13.60 |  2:51.64 |    190035    |   202923
       17  | 45:05.49 |  1:54.01 |    202924    |   211474
       18  | 46:59.50 |  2:51.27 |    211475    |   224326
Range status and errors
Selected range
     Filename G:\НАШЕ РЕТРО\Владимир Высоцкий - Я спою ... (6CD RU 2005 Sintez Production • SP500~5)\CD4-(SP-503CD) ''Я спою... Ноль семь''\Владимир Высоцкий - Я спою... Ноль семь.wav
     Peak level 98.9 %
     Range quality 100.0 %
     Copy CRC ED507C0E
     Copy OK
No errors occurred
End of status report

Отчёт auCDtect Task manager:

Код:
-----------------------
DON'T MODIFY THIS FILE
-----------------------
PERFORMER: auCDtect Task Manager, ver. 1.5.1RC4 build 1.5.1.5
Copyright (c) 2008-2010 y-soft. All rights reserved
http://y-soft.org
ANALYZER: auCDtect: CD records authenticity detector, version 0.8.2
Copyright (c) 2004 Oleg Berngardt. All rights reserved.
Copyright (c) 2004 Alexander Djourik. All rights reserved.
FILE: Владимир Высоцкий - Я спою... Ноль семь.wv
  Size: 192077525 Hash: 8DC641C748155B90E2D9B40258B17F71 Accuracy: -m0
  Conclusion: CDDA 99%
  Signature: 690829B725914B2C8562BC0E59C445679E558147

CD-5 ''Я спою... Еще не вечер''

(SP-504CD) Barcode : 4 607108 796673
Продолжительность: 00:49:42
Трек лист:
01. Я не люблю [02:11]
02. Чужая колея [03:14]
03. Мы вращаем Землю [03:15]
04. Дорожная история [02:27]
05. Баллада о детстве [05:59]
06. Кони привередливые [05:02]
07. Белое безмолвие [02:43]
08. Банька по-белому [07:46]
09. Охота на волков [03:02]
10. Бег иноходца [02:32]
11. Ещё не вечер [02:35]
12. Моя цыганская [04:38]
13. Прерванный полёт [04:12]

Отчёт ЕАС:

Код:
Exact Audio Copy V0.99 prebeta 5 from 4. May 2009
EAC extraction logfile from 12. September 2010, 21:11
Владимир Высоцкий / Я спою... Еще не вечер
Used drive  : Optiarc DVD RW AD-7203S   Adapter: 3  ID: 1
Read mode               : Secure
Utilize accurate stream : Yes
Defeat audio cache      : Yes
Make use of C2 pointers : No
Read offset correction                      : 48
Overread into Lead-In and Lead-Out          : No
Fill up missing offset samples with silence : Yes
Delete leading and trailing silent blocks   : No
Null samples used in CRC calculations       : Yes
Used interface                              : Installed external ASPI interface
Used output format : Internal WAV Routines
Sample format      : 44.100 Hz; 16 Bit; Stereo
TOC of the extracted CD
     Track |   Start  |  Length  | Start sector | End sector
    ---------------------------------------------------------
        1  |  0:00.00 |  2:11.34 |         0    |     9858
        2  |  2:11.34 |  3:14.40 |      9859    |    24448
        3  |  5:25.74 |  3:15.71 |     24449    |    39144
        4  |  8:41.70 |  2:27.38 |     39145    |    50207
        5  | 11:09.33 |  5:59.03 |     50208    |    77135
        6  | 17:08.36 |  5:02.08 |     77136    |    99793
        7  | 22:10.44 |  2:43.47 |     99794    |   112065
        8  | 24:54.16 |  7:46.22 |    112066    |   147037
        9  | 32:40.38 |  3:02.09 |    147038    |   160696
       10  | 35:42.47 |  2:32.50 |    160697    |   172146
       11  | 38:15.22 |  2:35.58 |    172147    |   183829
       12  | 40:51.05 |  4:38.61 |    183830    |   204740
       13  | 45:29.66 |  4:12.47 |    204741    |   223687
Range status and errors
Selected range
     Filename G:\НАШЕ РЕТРО\Владимир Высоцкий - Я спою ... (6CD RU 2005 Sintez Production • SP500~5)\CD5-(SP-504CD) ''Я спою... Еще не вечер''\Владимир Высоцкий - Я спою... Еще не вечер.wav
     Peak level 85.0 %
     Range quality 100.0 %
     Copy CRC AE2283D8
     Copy OK
No errors occurred
End of status report

Отчёт auCDtect Task manager:

Код:
-----------------------
DON'T MODIFY THIS FILE
-----------------------
PERFORMER: auCDtect Task Manager, ver. 1.5.1RC4 build 1.5.1.5
Copyright (c) 2008-2010 y-soft. All rights reserved
http://y-soft.org
ANALYZER: auCDtect: CD records authenticity detector, version 0.8.2
Copyright (c) 2004 Oleg Berngardt. All rights reserved.
Copyright (c) 2004 Alexander Djourik. All rights reserved.
FILE: Владимир Высоцкий - Я спою... Еще не вечер.wv
  Size: 205729451 Hash: 3C1019C32FABCF3EB96C582F14D2BACB Accuracy: -m0
  Conclusion: CDDA 100%
  Signature: 887DD9D4DBA612BA563F1CD5E0434513F41606E3

CD-6 ''Я спою... Райские яблоки''

(SP-505CD) Barcode : 4 607108 796680
Продолжительность: 00:49:55
Трек лист:
01. Очи чёрные. Погоня [03:06]
02. Очи чёрные. Старый дом [03:03]
03. Райские яблоки [05:52]
04. Штормит весь вечер и пока... [03:09]
05. Белый вальс [05:59]
06. О фатальных датах и цифрах [02:13]
07. Письмо к другу или Зарисовка о Париже [01:31]
08. Одна научная загадка или Почему аборигены съели Кука [02:11]
09. Песенка ни про что или что случилось в Африке [01:52]
10. Товарищи учёные [02:36]
11. Лекция о международном положении, прочитанная человеком, посаженным на 15 суток [02:53]
12. Письмо в редакцию телевизионной передачи 'Очевидное - невероятное' из сумасшедшего дома [04:33]
13. Москва - Одесса [02:38]
14. Утренняя гимнастика [01:38]
15. Песенка про прыгуна в длину [01:49]
16. Песенка о переселении душ [02:10]
17. Парус [01:19]
18. Большой Каретный [01:15]

Отчёт ЕАС:

Код:
Exact Audio Copy V0.99 prebeta 5 from 4. May 2009
EAC extraction logfile from 12. September 2010, 21:50
Владимир Высоцкий / Я спою... Райские яблоки
Used drive  : Optiarc DVD RW AD-7203S   Adapter: 3  ID: 1
Read mode               : Secure
Utilize accurate stream : Yes
Defeat audio cache      : Yes
Make use of C2 pointers : No
Read offset correction                      : 48
Overread into Lead-In and Lead-Out          : No
Fill up missing offset samples with silence : Yes
Delete leading and trailing silent blocks   : No
Null samples used in CRC calculations       : Yes
Used interface                              : Installed external ASPI interface
Used output format : Internal WAV Routines
Sample format      : 44.100 Hz; 16 Bit; Stereo
TOC of the extracted CD
     Track |   Start  |  Length  | Start sector | End sector
    ---------------------------------------------------------
        1  |  0:00.00 |  3:06.11 |         0    |    13960
        2  |  3:06.11 |  3:03.05 |     13961    |    27690
        3  |  6:09.16 |  5:52.29 |     27691    |    54119
        4  | 12:01.45 |  3:09.70 |     54120    |    68364
        5  | 15:11.40 |  5:59.57 |     68365    |    95346
        6  | 21:11.22 |  2:13.17 |     95347    |   105338
        7  | 23:24.39 |  1:31.31 |    105339    |   112194
        8  | 24:55.70 |  2:11.30 |    112195    |   122049
        9  | 27:07.25 |  1:52.71 |    122050    |   130520
       10  | 29:00.21 |  2:36.27 |    130521    |   142247
       11  | 31:36.48 |  2:53.35 |    142248    |   155257
       12  | 34:30.08 |  4:33.69 |    155258    |   175801
       13  | 39:04.02 |  2:38.63 |    175802    |   187714
       14  | 41:42.65 |  1:38.14 |    187715    |   195078
       15  | 43:21.04 |  1:49.21 |    195079    |   203274
       16  | 45:10.25 |  2:10.42 |    203275    |   213066
       17  | 47:20.67 |  1:19.41 |    213067    |   219032
       18  | 48:40.33 |  1:15.31 |    219033    |   224688
Range status and errors
Selected range
     Filename G:\НАШЕ РЕТРО\Владимир Высоцкий - Я спою ... (6CD RU 2005 Sintez Production • SP500~5)\CD6-(SP-505CD) ''Я спою... Райские яблоки''\Владимир Высоцкий - Я спою... Райские яблоки.wav
     Peak level 79.4 %
     Range quality 100.0 %
     Copy CRC E8AF8572
     Copy OK
No errors occurred
End of status report

Отчёт auCDtect Task manager:

Код:
-----------------------
DON'T MODIFY THIS FILE
-----------------------
PERFORMER: auCDtect Task Manager, ver. 1.5.1RC4 build 1.5.1.5
Copyright (c) 2008-2010 y-soft. All rights reserved
http://y-soft.org
ANALYZER: auCDtect: CD records authenticity detector, version 0.8.2
Copyright (c) 2004 Oleg Berngardt. All rights reserved.
Copyright (c) 2004 Alexander Djourik. All rights reserved.
FILE: Владимир Высоцкий - Я спою... Райские яблоки.wv
  Size: 222005997 Hash: 5F3F59CB4B082444338647964EC26165 Accuracy: -m0
  Conclusion: CDDA 100%
  Signature: DCC797CE0D42A2FEEA2E96E50016519ED71DCDAC

Notes

● Written by – Владимир Высоцкий ●
● MADE IN RUSSIA ●
Other forum [Profile] [PM]
Display posts from previous:    
Reply to topic

The time now is: Today 16:34

All times are GMT + 3 Hours



You cannot post new topics in this forum
You cannot reply to topics in this forum
You cannot edit your posts in this forum
You cannot delete your posts in this forum
You cannot vote in polls in this forum
You cannot attach files in this forum
You cannot download files in this forum