Today is a free download without charge Download

Приключения Электроника (Константин Бромберг) [1979, Фантастика, приключения, комедия, семейный,DVDRip] (серии 1-3 из 3)

Reply to topic
 
Author
Message

}{@R0N ®

Longevity: 5 years 7 months

Posts: 7739

Торрент-статистика

Post 04-May-2017 20:27

[Quote]

Приключения Электроника - Производство: СССР | Одесская киностудия
Жанр: Фантастика, приключения, комедия, семейный
Режиссер: Константин Бромберг
Актеры: Владимир Торсуев, Юрий Торсуев, Владимир Басов, Николай Караченцов, Василий Скромный, Оксана Алексеева, Николай Боярский, Роза Макагонова, Валентин Кулик, Оксана Фандера и др.
Описание:
Советский ученый создает гениального робота. Это мальчик, который способен решать любые математические задачи, он пишет самые лучшие сочинения и отлично поет! А еще он — точная копия школьника Сережи Сыроежкина. Сообразительный мальчуган быстренько перекладывает все свои обязанности на электронного двойника. Тот делает за него домашние задания, ходит в школу и выполняет хозяйственные дела, которые Сыроежкину поручают родители…

Возраст: 0+ (для любой зрительской аудитории)
Дата выхода DVD/Blu-ray релиза: 1 сентября 2008, «ВС трейд»
Продолжительность: ~01:10:00 серия
Качество видео: DVDRip Сэмпл
Видео: AVC/H.264, 1024x576 (16:9), ~3057 Kbps
Аудио: AAC, 2 ch, ~320 Kbps

Mediainfo:

General
Complete name : F:\Кино\Приключения Электроника\Priklucheniya Electronika\01_Priklucheniya_Electronika.mp4
Format : MPEG-4
Format profile : Base Media / Version 2
Codec ID : mp42 (mp42/mp41)
File size : 1.68 GiB
Duration : 1 h 11 min
Overall bit rate mode : Variable
Overall bit rate : 3 378 kb/s
Encoded date : UTC 2017-05-03 15:45:35
Tagged date : UTC 2017-05-03 15:47:21
©TIM : 00:00:00:00
©TSC : 25
©TSZ : 1
Video
ID : 1
Format : AVC
Format/Info : Advanced Video Codec
Format profile : [url=mailto:[email protected]][email protected][/url]
Format settings, CABAC : Yes
Format settings, ReFrames : 3 frames
Codec ID : avc1
Codec ID/Info : Advanced Video Coding
Duration : 1 h 11 min
Bit rate mode : Variable
Bit rate : 3 057 kb/s
Maximum bit rate : 4 000 kb/s
Width : 1 024 pixels
Height : 576 pixels
Display aspect ratio : 16:9
Frame rate mode : Constant
Frame rate : 25.000 FPS
Standard : PAL
Color space : YUV
Chroma subsampling : 4:2:0
Bit depth : 8 bits
Scan type : Interlaced
Scan type, store method : Separated fields
Scan order : Top Field First
Bits/(Pixel*Frame) : 0.207
Stream size : 1.52 GiB (90%)
Language : English
Encoded date : UTC 2017-05-03 15:45:35
Tagged date : UTC 2017-05-03 15:45:35
Color range : Limited
Color primaries : BT.601 PAL
Transfer characteristics : BT.470 System B, BT.470 System G
Matrix coefficients : BT.601
Audio
ID : 2
Format : AAC
Format/Info : Advanced Audio Codec
Format profile : LC
Codec ID : 40
Duration : 1 h 11 min
Source duration : 1 h 11 min
Bit rate mode : Variable
Bit rate : 317 kb/s
Maximum bit rate : 399 kb/s
Channel(s) : 2 channels
Channel positions : Front: L R
Sampling rate : 48.0 kHz
Frame rate : 46.875 FPS (1024 spf)
Compression mode : Lossy
Stream size : 161 MiB (9%)
Source stream size : 161 MiB (9%)
Language : English
Encoded date : UTC 2017-05-03 15:45:35
Tagged date : UTC 2017-05-03 15:45:35
Скриншоты:
       

Дополнительные скриншоты:

       
       
       
Other forum [Profile] [PM]
Similar theme
Forum Topic Author Torrent Replies Last Post
./templates/default/images/folder_dl.gif Фильмы 2001-2010 Невероятная жизнь Уолтера Митти / The Secret Life of Walter Mitty (Бен Стиллер / Ben Stiller, 2013, Приключения, мелодрама, драма, комедия, фэнтези) WEB-DL [H.264/1080p-LQ] Omen
1 | 0

0 | 1173

36

2014-03-26 22:37
Omen Latest
./templates/default/images/folder_dl.gif Отечественные cериалы Шерлок Холмс / Сезон: 1 / Серии: 1-8 из 8 (Андрей Кавун) [2013, триллер, детектив, приключения, WEB-DL (720p)] Omen
1 | 0

0 | 632

0

2016-02-28 15:00
Omen Latest
./templates/default/images/folder_dl.gif Зарубежное кино Изгой-один: Звёздные войны. Истории / Rogue One: A Star Wars Story (Гарет Эдвардс) [2016 г., фантастика, боевик, приключения, BDRip 1080p] DUB | Чистый звук Theseus
1 | 0

0 | 8084

8

2017-03-22 11:05
Theseus Latest
./templates/default/images/folder_dl.gif Зарубежные сериалы Игра престолов / Game of Thrones / Сезон: 8 / Серии: 1-6 из 6 (Алан Тейлор / Alan Taylor) [2019, фэнтези, боевик, драма, мелодрама, приключения, WEB-DL 1080p] MVO (Amedia / Новамедиа) + Original + Sub (Rus, Eng) ¶ }{@R0N
1 | 0

0 | 2661

0

2019-05-20 12:02
}{@R0N Latest
Display posts from previous:    
Reply to topic

The time now is: Today 16:53

All times are GMT + 3 Hours



You cannot post new topics in this forum
You cannot reply to topics in this forum
You cannot edit your posts in this forum
You cannot delete your posts in this forum
You cannot vote in polls in this forum
You cannot attach files in this forum
You cannot download files in this forum