Today is a free download without charge Download

Пираньи 3DD / Piranha 3DD (Джон Гулажер) [2012 г., ужасы, комедия, триллер, BDRemux, 1080p]

Reply to topic
 
Author
Message

Meshanik ®

Gender:

Longevity: 8 years 10 months

Posts: 3866

Location: Los Angeles

Торрент-статистика

Post 06-Oct-2012 06:51

[Quote]

Пираньи 3DD / Piranha 3DD
«Double the action. Double the terror. Double the D's.»

--Русское название: Пираньи 3DD
Оригинальное название: Piranha 3DD
Год выпуска: 2012
Страна: США
Жанр: Ужасы, Триллер, Комедия
Продолжительность: 01:22:41
Перевод: Дублированный, Одноголосый
Язык субтитров: Русские, Английские (Full, Full SDH)
Вид субтитров: Вшитые, отключаемые--Режиссер: Джон Гулажер
Продюсер: Марк Кантон, Джоэль Сойзон, Марк Тоберофф
В ролях: Даниэль Панабэйкер, Мэтт Буш, Дэвид Кекнер, Жан-Люк Билодо, Крис Зилка, Катрина Боуден, Адриан Мартинез, Пол Джеймс, Мэган Тэнди, Дэвид Хэсселхофф, Кристофер Ллойд
Дата мировой премьеры: 11 мая 2012
Дата российской премьеры: 23 августа 2012, «Централ Партнершип»
Описание фильма:
Доисторические твари больше не будут ограничиваться поеданием туристов на озере, а проникнут через водопроводные и канализационные сети в бассейны и иные искусственные водоемы нового аквапарка под названием Wilderness Waters. Именно там и развернется основное действие.-- --Качество видео: BDRemux
Контейнер: MKV
Видеокодек: MPEG-4 AVC/H.264
Аудиокодек: AC-3, DTS-HD MA
Видео: 1920x1080, 23.976 fps, ~28,0 Mbps
Аудио 1: Русский, AC-3, 384 kbps, 6 каналов, 16 bit, (L, C, R, l, r) + LFE - Дублированный
Аудио 2: Русский, AC-3, 384 kbps, 6 каналов, 16 bit, (L, C, R, l, r) + LFE - Одноголосый закадровый
Аудио 3: Английский, DTS-HD MA, 5.1, 48 kHz, 4218 kbps, 24 bit, 6 каналов, (DTS Core: 5.1, 48 kHz, 1509 kbps, 24 bit, 6 каналов) - (L, C, R, l, r) + LFE

Знаете ли вы, что...

Первый фильм из серии «Пираньи», который полностью снят в 3D.
Миранда Косгров прослушивалась на роль Мэдди, которую в итоге получила Даниэль Панабэйкер.
В первом кадре с Дэвидом Хэсселхоффом, когда юный Дэвид бежит к нему, значок у Хоффа надет задом наперед.
Когда показывают, как Хэсселхофф смотрит из окна своего номера на улицу, в окне отражается держащий камеру кран.
Когда Мэдди удалось выжить после нападения пираний ее куртка мокрая, а в следующем кадре уже сухая

MediaInfo

Формат : Matroska
Версия формата : Version 2
Размер файла : 17,9 Гбайт
Продолжительность : 1 ч. 22 м.
Режим общего битрейта : Переменный
Общий поток : 30,9 Мбит/сек
Дата кодирования : UTC 2012-08-30 13:38:22
Программа кодирования : mkvmerge v5.2.0 ('I can't explain') built on Dec 18 2011 18:12:03
Библиотека кодирования : libebml v1.2.3 + libmatroska v1.3.0
Видео
Идентификатор : 1
Формат : AVC
Формат/Информация : Advanced Video Codec
Профиль формата : [url=mailto:[email protected]][email protected][/url]
Параметр CABAC формата : Да
Параметр ReFrames формата : 4 кадра
Идентификатор кодека : V_MPEG4/ISO/AVC
Продолжительность : 1 ч. 22 м.
Вид битрейта : Переменный
Битрейт : 28,0 Мбит/сек
Максимальный битрейт : 38,0 Мбит/сек
Ширина : 1920 пикселей
Высота : 1080 пикселей
Соотношение сторон : 16:9
Режим частоты кадров : Постоянный
Частота кадров : 23,976 кадра/сек
Цветовое пространство : YUV
Субдискретизация насыщенности : 4:2:0
Битовая глубина : 8 бит
Тип развёртки : Прогрессивная
Бит/(Пиксели*Кадры) : 0.562
Размер потока : 16,2 Гбайт (90%)
Язык : English
Default : Да
Forced : Да
Аудио #1
Идентификатор : 2
Формат : AC-3
Формат/Информация : Audio Coding 3
Расширение режима : CM (complete main)
Параметр Endianness формата : Big
Идентификатор кодека : A_AC3
Продолжительность : 1 ч. 22 м.
Вид битрейта : Постоянный
Битрейт : 384 Кбит/сек
Каналы : 6 каналов
Расположение каналов : Front: L C R, Side: L R, LFE
Частота : 48,0 КГц
Битовая глубина : 16 бит
Метод сжатия : С потерями
Размер потока : 227 Мбайт (1%)
Заголовок : DUB
Язык : Russian
Default : Да
Forced : Нет
Аудио #2
Идентификатор : 3
Формат : AC-3
Формат/Информация : Audio Coding 3
Расширение режима : CM (complete main)
Параметр Endianness формата : Big
Идентификатор кодека : A_AC3
Продолжительность : 1 ч. 22 м.
Вид битрейта : Постоянный
Битрейт : 384 Кбит/сек
Каналы : 6 каналов
Расположение каналов : Front: L C R, Side: L R, LFE
Частота : 48,0 КГц
Битовая глубина : 16 бит
Метод сжатия : С потерями
Размер потока : 227 Мбайт (1%)
Заголовок : L1
Язык : Russian
Default : Нет
Forced : Нет
Аудио #3
Идентификатор : 4
Формат : DTS
Формат/Информация : Digital Theater Systems
Профиль формата : MA / Core
Идентификатор кодека : A_DTS
Продолжительность : 1 ч. 22 м.
Вид битрейта : Переменный
Битрейт : 1561 Кбит/сек / 1510 Кбит/сек
Каналы : 6 каналов
Расположение каналов : Front: L C R, Side: L R, LFE
Частота : 48,0 КГц
Битовая глубина : 24 бит
Метод сжатия : Без потерь / Lossy
Язык : English
Default : Нет
Forced : Нет
Текст #1
Идентификатор : 5
Формат : UTF-8
Идентификатор кодека : S_TEXT/UTF8
Идентификатор кодека/Информация : UTF-8 Plain Text
Язык : Russian
Default : Нет
Forced : Нет
Текст #2
Идентификатор : 6
Формат : UTF-8
Идентификатор кодека : S_TEXT/UTF8
Идентификатор кодека/Информация : UTF-8 Plain Text
Заголовок : Full
Язык : English
Default : Нет
Forced : Нет
Текст #3
Идентификатор : 7
Формат : UTF-8
Идентификатор кодека : S_TEXT/UTF8
Идентификатор кодека/Информация : UTF-8 Plain Text
Заголовок : Full SDH
Язык : English
Default : Нет
Forced : Нет
Меню
00:00:00.000 : en:
00:06:20.880 : en:
00:11:47.873 : en:
00:14:14.060 : en:
00:18:44.330 : en:
00:21:37.546 : en:
00:25:05.045 : en:
00:31:39.480 : en:
00:36:03.870 : en:
00:41:50.341 : en:
00:45:10.123 : en:
00:51:20.911 : en:
00:57:03.253 : en:
01:00:12.692 : en:
01:05:28.424 : en:
01:10:43.405 : en:

Скриншоты

         
Other forum [Profile] [PM]
Display posts from previous:    
Reply to topic

The time now is: Today 09:23

All times are GMT + 3 Hours



You cannot post new topics in this forum
You cannot reply to topics in this forum
You cannot edit your posts in this forum
You cannot delete your posts in this forum
You cannot vote in polls in this forum
You cannot attach files in this forum
You cannot download files in this forum